Quay lại   lauxanh phim sex online | anh sex viet nam | hinh sexviet, phim cap 3 nguoi lon > Phim Sex - Phim Nguoi Lon - Phim lauxanh cấp 3 khỏa thân > Kho phim Sex LầuXanh - Http Download sex Movies > Phim Sex Châu Âu FULL - Western Porn FULL Movie

Chú ý

Thread:

[FSHARE 1 LINK] SƯU TẬP SEX ÂU DVDRIP-BDRIP... HIHIHIHI

Gửi trả lời
 
Công Cụ
Cũ 01-24-2013, 10:55 AM   #16
zuizuivth
Đại Gia Lầu Xanh
 
Avatar của zuizuivth
 
Ngày gia nhập: Aug 2011
Nơi cư ngụ: Ở Thành Phố Đà Lạt hihi
Bài gửi: 882
zuizuivth Cu cửngzuizuivth Cu cửngzuizuivth Cu cửngzuizuivth Cu cửngzuizuivth Cu cửngzuizuivth Cu cửngzuizuivth Cu cửng
zuizuivth vẫn chưa có mặt trong diễn đàn
Mặc định

The Innocence Of Youth 4

Front Image


Back Image


Test Screen


General Information

Code:
General

Of Youth 4.mp4
Format                                   : MPEG-4
Format profile                           : Base Media
Codec ID                                 : isom
File size                                : 1.04 GiB
Duration                                 : 1h 52mn
Overall bit rate mode                    : Variable
Overall bit rate                         : 1 319 Kbps
Encoded date                             : UTC 2013-01-14 12:26:48
Tagged date                              : UTC 2013-01-14 12:26:48

Video
ID                                       : 1
Format                                   : AVC
Format/Info                              : Advanced Video Codec
Format profile                           : High@L3.1
Format settings, CABAC                   : Yes
Format settings, ReFrames                : 5 frames
Codec ID                                 : avc1
Codec ID/Info                            : Advanced Video Coding
Duration                                 : 1h 52mn
Bit rate                                 : 1 183 Kbps
Maximum bit rate                         : 2 552 Kbps
Width                                    : 720 pixels
Height                                   : 404 pixels
Display aspect ratio                     : 16:9
Frame rate mode                          : Constant
Frame rate                               : 23.976 fps
Color space                              : YUV
Chroma subsampling                       : 4:2:0
Bit depth                                : 8 bits
Scan type                                : Progressive
Bits/(Pixel*Frame)                       : 0.170
Stream size                              : 953 MiB (90%)
Writing library                          : x264 core 129 r2230 1cffe9f
Encoding settings                        : cabac=1 / ref=5 / deblock=1:0:0 / analyse=0x3:0x113 / me=umh / subme=8 / psy=1 / psy_rd=1.00:0.00 / mixed_ref=1 / me_range=16 / chroma_me=1 / trellis=1 / 8x8dct=1 / cqm=0 / deadzone=21,11 / fast_pskip=0 / chroma_qp_offset=-2 / threads=12 / lookahead_threads=2 / sliced_threads=0 / nr=0 / decimate=1 / interlaced=0 / bluray_compat=0 / constrained_intra=0 / bframes=3 / b_pyramid=2 / b_adapt=2 / b_bias=0 / direct=3 / weightb=1 / open_gop=0 / weightp=2 / keyint=240 / keyint_min=23 / scenecut=40 / intra_refresh=0 / rc_lookahead=50 / rc=crf / mbtree=1 / crf=20.0 / qcomp=0.60 / qpmin=0 / qpmax=69 / qpstep=4 / ip_ratio=1.40 / aq=1:1.00
Encoded date                             : UTC 2013-01-14 12:26:48
Tagged date                              : UTC 2013-01-14 12:27:53

Audio
ID                                       : 2
Format                                   : AAC
Format/Info                              : Advanced Audio Codec
Format profile                           : LC
Codec ID                                 : 40
Duration                                 : 1h 52mn
Bit rate mode                            : Variable
Bit rate                                 : 132 Kbps
Maximum bit rate                         : 189 Kbps
Channel(s)                               : 2 channels
Channel positions                        : Front: L R
Sampling rate                            : 48.0 KHz
Compression mode                         : Lossy
Stream size                              : 106 MiB (10%)
Language                                 : English
Encoded date                             : UTC 2013-01-14 12:27:47
Tagged date                              : UTC 2013-01-14 12:27:53
Plots

Trích dẫn:
Featuring Staci Silverstone! 2 Bonus Scenes: Molly Bennett & Mae Olsen! These cuties are young and sweet, but far from innocent! Sage Evans, Staci Silverstone, Amor Hilton, and Jessa Rhodes are dripping wet and ready to be broken in! Although these girls don't look the part, they're ready to fuck away all of their innocence of youth!

Starring:Molly Bennett, Staci Silverstone, Jessa Rhodes, Anthony Rosano, Ramon Nomar, Bruce Venture, Mae Olsen, Sage Evans, Amor Hilton
Screenshot

Click Vào Screenshot Xem Lớn Hơn
Please Click On Image To Enlarge



Download



Fshare 1 link

Code:
http://www.fshare.vn/folder/T2D4KNY4HT/

Encoder
Code:
DivXfacTory

Uploader
Code:
zuizuivth
__________________
Người Không Buồn...hihihi
  Trả lời kèm theo trích dẫn

Sponsored Links
CÁ CƯỢC BÓNG ĐÁ
xem phim xxx, cap 4 chat luong cao - watch free full dvd videos
Cũ 01-26-2013, 12:08 AM   #17
zuizuivth
Đại Gia Lầu Xanh
 
Avatar của zuizuivth
 
Ngày gia nhập: Aug 2011
Nơi cư ngụ: Ở Thành Phố Đà Lạt hihi
Bài gửi: 882
zuizuivth Cu cửngzuizuivth Cu cửngzuizuivth Cu cửngzuizuivth Cu cửngzuizuivth Cu cửngzuizuivth Cu cửngzuizuivth Cu cửng
zuizuivth vẫn chưa có mặt trong diễn đàn
Mặc định

The Innocence Of Youth 3

Front Image


Back Image


Test Screen


General Information CD1(Full 2 CD)

Code:
General

\_cd1.avi
Format                                   : AVI
Format/Info                              : Audio Video Interleave
File size                                : 700 MiB
Duration                                 : 54mn 47s
Overall bit rate mode                    : Variable
Overall bit rate                         : 1 786 Kbps
Writing application                      : VirtualDubMod 1.5.10.2 (build 2542/release)
Writing library                          : VirtualDubMod build 2542/release

Video
ID                                       : 0
Format                                   : MPEG-4 Visual
Format profile                           : Advanced Simple@L5
Format settings, BVOP                    : No
Format settings, QPel                    : No
Format settings, GMC                     : No warppoints
Format settings, Matrix                  : Default (MPEG)
Codec ID                                 : XVID
Codec ID/Hint                            : XviD
Duration                                 : 54mn 47s
Bit rate                                 : 1 647 Kbps
Width                                    : 624 pixels
Height                                   : 352 pixels
Display aspect ratio                     : 16:9
Frame rate                               : 23.976 fps
Color space                              : YUV
Chroma subsampling                       : 4:2:0
Bit depth                                : 8 bits
Scan type                                : Progressive
Compression mode                         : Lossy
Bits/(Pixel*Frame)                       : 0.313
Stream size                              : 646 MiB (92%)
Writing library                          : XviD 64

Audio
ID                                       : 1
Format                                   : MPEG Audio
Format version                           : Version 1
Format profile                           : Layer 3
Mode                                     : Joint stereo
Mode extension                           : MS Stereo
Codec ID                                 : 55
Codec ID/Hint                            : MP3
Duration                                 : 54mn 47s
Bit rate mode                            : Variable
Bit rate                                 : 128 Kbps
Channel(s)                               : 2 channels
Sampling rate                            : 48.0 KHz
Compression mode                         : Lossy
Stream size                              : 49.4 MiB (7%)
Alignment                                : Aligned on interleaves
Interleave, duration                     : 24 ms (0.58 video frame)
Interleave, preload duration             : 539 ms
Writing library                          : LAME3.90.
Encoding settings                        : -m j -V 4 -q 2 -lowpass 17.6 --abr 128
Plots

Trích dẫn:
Featuring Mae Olson! 2 Bonus Scenes: Chastity Lynn & Rosemary Radeva! The lustful curiosity of these innocent young ladies has gotten the best of them once again! Watch as Mae Olsen, Jonni Hennessy, Hope, and Tracey Sweet learn hard lessons of love, lust and sexual domination. Although these girls don't look the part, they're soaking wet and ready to fuck away all of their innocence of youth!

Starring: Mae Olsen, Tracey Sweet, Hope, Jonni Hennessy, Mick Blue, Xander Corvus, Bruce Venture, Eric Swiss
Screenshot CD1(Full 2 CD)

Click Vào Screenshot Xem Lớn Hơn
Please Click On Image To Enlarge



Download



Fshare 1 link

Code:
http://www.fshare.vn/folder/TM1KXP7PST/

Encoder
Code:
STARLETS

Uploader
Code:
zuizuivth
__________________
Người Không Buồn...hihihi
  Trả lời kèm theo trích dẫn
Cũ 01-26-2013, 12:14 AM   #18
zuizuivth
Đại Gia Lầu Xanh
 
Avatar của zuizuivth
 
Ngày gia nhập: Aug 2011
Nơi cư ngụ: Ở Thành Phố Đà Lạt hihi
Bài gửi: 882
zuizuivth Cu cửngzuizuivth Cu cửngzuizuivth Cu cửngzuizuivth Cu cửngzuizuivth Cu cửngzuizuivth Cu cửngzuizuivth Cu cửng
zuizuivth vẫn chưa có mặt trong diễn đàn
Mặc định

Roccos's Abbondanza 2

Front Image


Back Image


Test Screen


General Information

Code:
General

\SWE6\_swe6.mp4
Format                                   : MPEG-4
Format profile                           : Base Media
Codec ID                                 : isom
File size                                : 1.93 GiB
Duration                                 : 2h 27mn
Overall bit rate mode                    : Variable
Overall bit rate                         : 1 882 Kbps
Encoded date                             : UTC 2012-12-09 16:52:52
Tagged date                              : UTC 2012-12-09 16:52:52

Video
ID                                       : 1
Format                                   : AVC
Format/Info                              : Advanced Video Codec
Format profile                           : High@L3.1
Format settings, CABAC                   : Yes
Format settings, ReFrames                : 5 frames
Codec ID                                 : avc1
Codec ID/Info                            : Advanced Video Coding
Duration                                 : 2h 27mn
Bit rate                                 : 1 629 Kbps
Maximum bit rate                         : 4 144 Kbps
Width                                    : 720 pixels
Height                                   : 400 pixels
Display aspect ratio                     : 16:9
Frame rate mode                          : Constant
Frame rate                               : 29.970 fps
Color space                              : YUV
Chroma subsampling                       : 4:2:0
Bit depth                                : 8 bits
Scan type                                : Progressive
Bits/(Pixel*Frame)                       : 0.189
Stream size                              : 1.67 GiB (87%)
Writing library                          : x264 core 129 r2230 1cffe9f
Encoding settings                        : cabac=1 / ref=5 / deblock=1:0:0 / analyse=0x3:0x113 / me=umh / subme=8 / psy=1 / psy_rd=1.00:0.00 / mixed_ref=1 / me_range=16 / chroma_me=1 / trellis=1 / 8x8dct=1 / cqm=0 / deadzone=21,11 / fast_pskip=0 / chroma_qp_offset=-2 / threads=6 / lookahead_threads=1 / sliced_threads=0 / nr=0 / decimate=1 / interlaced=0 / bluray_compat=0 / constrained_intra=0 / bframes=3 / b_pyramid=2 / b_adapt=2 / b_bias=0 / direct=3 / weightb=1 / open_gop=0 / weightp=2 / keyint=300 / keyint_min=29 / scenecut=40 / intra_refresh=0 / rc_lookahead=50 / rc=crf / mbtree=1 / crf=19.0 / qcomp=0.60 / qpmin=0 / qpmax=69 / qpstep=4 / ip_ratio=1.40 / aq=1:1.00
Encoded date                             : UTC 2012-12-09 16:52:52
Tagged date                              : UTC 2012-12-09 16:54:39

Audio
ID                                       : 2
Format                                   : AAC
Format/Info                              : Advanced Audio Codec
Format profile                           : LC
Codec ID                                 : 40
Duration                                 : 2h 27mn
Bit rate mode                            : Variable
Bit rate                                 : 248 Kbps
Maximum bit rate                         : 288 Kbps
Channel(s)                               : 2 channels
Channel positions                        : Front: L R
Sampling rate                            : 48.0 KHz
Compression mode                         : Lossy
Stream size                              : 261 MiB (13%)
Encoded date                             : UTC 2012-12-09 16:54:29
Tagged date                              : UTC 2012-12-09 16:54:39
Plots
Trích dẫn:
A pool table, Tarra White, a very, very good double-anal with Linet Slag and the first DP from Abbie Cat are in the same scene. Shione Cooper has huge natural tits. Emma Butt is a crazy, funny talent. Don't miss the way I drink milk with super Monalee and Valentina Nappi. The huge, sublime teen breasts of Naomi end the movie. If you like big tits, don't miss this one.' -- Rocco Siffredi

Starring: Linel Slag, Tarra White, Abbie Cat, Antonya, Emma Butt, Shione Cooper, Valentina Nappi, Monalee, Valery Summer, Naomi.
Screenshot

Click Vào Screenshot Xem Lớn Hơn
Please Click On Image To Enlarge




Download



Fshare 1 link

Code:
http://www.fshare.vn/folder/T70VGBMJ8T/

Encoder
Code:
SWE6RUS

Uploader
Code:
zuizuivth
__________________
Người Không Buồn...hihihi
  Trả lời kèm theo trích dẫn
Cũ 01-26-2013, 12:19 AM   #19
zuizuivth
Đại Gia Lầu Xanh
 
Avatar của zuizuivth
 
Ngày gia nhập: Aug 2011
Nơi cư ngụ: Ở Thành Phố Đà Lạt hihi
Bài gửi: 882
zuizuivth Cu cửngzuizuivth Cu cửngzuizuivth Cu cửngzuizuivth Cu cửngzuizuivth Cu cửngzuizuivth Cu cửngzuizuivth Cu cửng
zuizuivth vẫn chưa có mặt trong diễn đàn
Mặc định

The Best Of Phoenix Marie

Front Image


Back Image


Test Screen


General Information

Code:
General

\_tb.mp4
Format                                   : MPEG-4
Format profile                           : Base Media
Codec ID                                 : isom
File size                                : 923 MiB
Duration                                 : 1h 58mn
Overall bit rate mode                    : Variable
Overall bit rate                         : 1 094 Kbps
Encoded date                             : UTC 2013-01-10 14:18:13
Tagged date                              : UTC 2013-01-10 14:18:13
Writing application                      : My MP4Box GUI 0.5.6.0 <http://my-mp4box-gui.zymichost.com>

Video
ID                                       : 1
Format                                   : AVC
Format/Info                              : Advanced Video Codec
Format profile                           : High@L3.1
Format settings, CABAC                   : Yes
Format settings, ReFrames                : 5 frames
Codec ID                                 : avc1
Codec ID/Info                            : Advanced Video Coding
Duration                                 : 1h 58mn
Bit rate                                 : 994 Kbps
Maximum bit rate                         : 2 543 Kbps
Width                                    : 704 pixels
Height                                   : 386 pixels
Display aspect ratio                     : 1.85:1
Frame rate mode                          : Constant
Frame rate                               : 29.970 fps
Color space                              : YUV
Chroma subsampling                       : 4:2:0
Bit depth                                : 8 bits
Scan type                                : Progressive
Bits/(Pixel*Frame)                       : 0.122
Stream size                              : 839 MiB (91%)
Writing library                          : x264 core 129 r2230 1cffe9f
Encoding settings                        : cabac=1 / ref=5 / deblock=1:0:0 / analyse=0x3:0x133 / me=umh / subme=8 / psy=1 / psy_rd=1.00:0.00 / mixed_ref=1 / me_range=16 / chroma_me=1 / trellis=1 / 8x8dct=1 / cqm=0 / deadzone=21,11 / fast_pskip=0 / chroma_qp_offset=-2 / threads=12 / lookahead_threads=2 / sliced_threads=0 / nr=0 / decimate=1 / interlaced=0 / bluray_compat=0 / constrained_intra=0 / bframes=3 / b_pyramid=2 / b_adapt=2 / b_bias=0 / direct=3 / weightb=1 / open_gop=0 / weightp=2 / keyint=300 / keyint_min=29 / scenecut=40 / intra_refresh=0 / rc_lookahead=50 / rc=crf / mbtree=1 / crf=20.0 / qcomp=0.60 / qpmin=0 / qpmax=69 / qpstep=4 / ip_ratio=1.40 / aq=1:1.00
Encoded date                             : UTC 2013-01-11 13:20:01
Tagged date                              : UTC 2013-01-10 14:18:47

Audio
ID                                       : 2
Format                                   : AAC
Format/Info                              : Advanced Audio Codec
Format profile                           : LC
Codec ID                                 : 40
Duration                                 : 1h 58mn
Bit rate mode                            : Variable
Bit rate                                 : 96.0 Kbps
Maximum bit rate                         : 103 Kbps
Channel(s)                               : 2 channels
Channel positions                        : Front: L R
Sampling rate                            : 48.0 KHz
Compression mode                         : Lossy
Delay relative to video                  : 67ms
Stream size                              : 80.7 MiB (9%)
Encoded date                             : UTC 2013-01-10 14:18:45
Tagged date                              : UTC 2013-01-10 14:18:47
Plots

Trích dẫn:
This video…

Starring: Phoenix Marie, Evan Stone, Rocco Reed, Bill Bailey, Mark Zane
Screenshot

Click Vào Screenshot Xem Lớn Hơn
Please Click On Image To Enlarge



Download



Fshare 1 link

Code:
http://www.fshare.vn/folder/TWT1T1N5BT/

Encoder
Code:
Jiggly

Uploader
Code:
zuizuivth
__________________
Người Không Buồn...hihihi
  Trả lời kèm theo trích dẫn
Cũ 01-26-2013, 12:25 AM   #20
zuizuivth
Đại Gia Lầu Xanh
 
Avatar của zuizuivth
 
Ngày gia nhập: Aug 2011
Nơi cư ngụ: Ở Thành Phố Đà Lạt hihi
Bài gửi: 882
zuizuivth Cu cửngzuizuivth Cu cửngzuizuivth Cu cửngzuizuivth Cu cửngzuizuivth Cu cửngzuizuivth Cu cửngzuizuivth Cu cửng
zuizuivth vẫn chưa có mặt trong diễn đàn
Mặc định

Nylons 6


Front Image


Back Image


Test Screen


General Information CD1(Full 2 CD)

Code:
General

\_N6-cd1.avi
Format                                   : AVI
Format/Info                              : Audio Video Interleave
File size                                : 699 MiB
Duration                                 : 1h 11mn
Overall bit rate mode                    : Variable
Overall bit rate                         : 1 358 Kbps
Writing application                      : VirtualDubMod 1.5.10.2 (build 2540/release)
Writing library                          : VirtualDubMod build 2540/release

Video
ID                                       : 0
Format                                   : MPEG-4 Visual
Format profile                           : Simple@L0
Format settings, BVOP                    : No
Format settings, QPel                    : No
Format settings, GMC                     : No warppoints
Format settings, Matrix                  : Default (H.263)
Codec ID                                 : XVID
Codec ID/Hint                            : XviD
Duration                                 : 1h 11mn
Bit rate                                 : 1 222 Kbps
Width                                    : 640 pixels
Height                                   : 352 pixels
Display aspect ratio                     : 16:9
Frame rate                               : 29.970 fps
Color space                              : YUV
Chroma subsampling                       : 4:2:0
Bit depth                                : 8 bits
Scan type                                : Progressive
Compression mode                         : Lossy
Bits/(Pixel*Frame)                       : 0.181
Stream size                              : 629 MiB (90%)
Writing library                          : XviD 1.0.3 (UTC 2004-12-20)

Audio
ID                                       : 1
Format                                   : MPEG Audio
Format version                           : Version 1
Format profile                           : Layer 3
Mode                                     : Joint stereo
Mode extension                           : MS Stereo
Codec ID                                 : 55
Codec ID/Hint                            : MP3
Duration                                 : 1h 11mn
Bit rate mode                            : Variable
Bit rate                                 : 128 Kbps
Channel(s)                               : 2 channels
Sampling rate                            : 48.0 KHz
Compression mode                         : Lossy
Stream size                              : 63.0 MiB (9%)
Alignment                                : Aligned on interleaves
Interleave, duration                     : 24 ms (0.72 video frame)
Interleave, preload duration             : 281 ms
Writing library                          : LAME3.90.
Encoding settings                        : -m j -V 4 -q 2 -lowpass 17.6 --abr 128
Plots

Trích dẫn:
Imagine her long smooth legs encased in shiny black nylons as she gets her sweet 'dripping wet' pussy pounded by some huge cock. The juices running down her thighs as the wet silk glistens. These girls love to tease then take that dick up their tiny little holes. All the while, dressed in silky-soft tight-fitting NYLONS.

Starring: Lexi Belle, Sadie West, McKenzie Lee, Brooke Belle, Ryder Sky, Mr Pete, Mark Wood, John Strong, Seth Gamble
Screenshot CD1(Full 2 CD)

Click Vào Screenshot Xem Lớn Hơn
Please Click On Image To Enlarge



Download



Fshare 1 link

Code:
http://www.fshare.vn/folder/TGN3QXQ3YT/

Encoder
Code:
Pr0nStarS

Uploader
Code:
zuizuivth
__________________
Người Không Buồn...hihihi
  Trả lời kèm theo trích dẫn
Cũ 01-26-2013, 12:29 AM   #21
zuizuivth
Đại Gia Lầu Xanh
 
Avatar của zuizuivth
 
Ngày gia nhập: Aug 2011
Nơi cư ngụ: Ở Thành Phố Đà Lạt hihi
Bài gửi: 882
zuizuivth Cu cửngzuizuivth Cu cửngzuizuivth Cu cửngzuizuivth Cu cửngzuizuivth Cu cửngzuizuivth Cu cửngzuizuivth Cu cửng
zuizuivth vẫn chưa có mặt trong diễn đàn
Mặc định

Anal Teen Dreams 2

Front Image


Back Image


Test Screen


General Information

Code:
General

\Atd2\_analteendreams2.avi
Format                                   : MPEG-4
Format profile                           : Base Media
Codec ID                                 : isom
File size                                : 817 MiB
Duration                                 : 1h 33mn
Overall bit rate mode                    : Variable
Overall bit rate                         : 1 218 Kbps
Encoded date                             : UTC 2013-01-10 10:47:25
Tagged date                              : UTC 2013-01-10 10:47:25
Writing application                      : My MP4Box GUI 0.5.6.0 <http://my-mp4box-gui.zymichost.com>

Video
ID                                       : 1
Format                                   : AVC
Format/Info                              : Advanced Video Codec
Format profile                           : High@L3.1
Format settings, CABAC                   : Yes
Format settings, ReFrames                : 5 frames
Codec ID                                 : avc1
Codec ID/Info                            : Advanced Video Coding
Duration                                 : 1h 33mn
Bit rate                                 : 1 118 Kbps
Maximum bit rate                         : 4 736 Kbps
Width                                    : 704 pixels
Height                                   : 386 pixels
Display aspect ratio                     : 1.85:1
Frame rate mode                          : Constant
Frame rate                               : 29.970 fps
Color space                              : YUV
Chroma subsampling                       : 4:2:0
Bit depth                                : 8 bits
Scan type                                : Progressive
Bits/(Pixel*Frame)                       : 0.137
Stream size                              : 750 MiB (92%)
Writing library                          : x264 core 129 r2230 1cffe9f
Encoding settings                        : cabac=1 / ref=5 / deblock=1:0:0 / analyse=0x3:0x133 / me=umh / subme=8 / psy=1 / psy_rd=1.00:0.00 / mixed_ref=1 / me_range=16 / chroma_me=1 / trellis=1 / 8x8dct=1 / cqm=0 / deadzone=21,11 / fast_pskip=0 / chroma_qp_offset=-2 / threads=12 / lookahead_threads=2 / sliced_threads=0 / nr=0 / decimate=1 / interlaced=0 / bluray_compat=0 / constrained_intra=0 / bframes=3 / b_pyramid=2 / b_adapt=2 / b_bias=0 / direct=3 / weightb=1 / open_gop=0 / weightp=2 / keyint=300 / keyint_min=29 / scenecut=40 / intra_refresh=0 / rc_lookahead=50 / rc=crf / mbtree=1 / crf=20.0 / qcomp=0.60 / qpmin=0 / qpmax=69 / qpstep=4 / ip_ratio=1.40 / aq=1:1.00
Encoded date                             : UTC 2013-01-11 09:43:11
Tagged date                              : UTC 2013-01-10 10:47:57

Audio
ID                                       : 2
Format                                   : AAC
Format/Info                              : Advanced Audio Codec
Format profile                           : LC
Codec ID                                 : 40
Duration                                 : 1h 33mn
Bit rate mode                            : Variable
Bit rate                                 : 96.0 Kbps
Maximum bit rate                         : 110 Kbps
Channel(s)                               : 2 channels
Channel positions                        : Front: L R
Sampling rate                            : 48.0 KHz
Compression mode                         : Lossy
Delay relative to video                  : 67ms
Stream size                              : 64.2 MiB (8%)
Encoded date                             : UTC 2013-01-10 10:47:55
Tagged date                              : UTC 2013-01-10 10:47:57
Plots

Trích dẫn:
An Axel Braun EuroTrip! Five Anal Scenes! 100% Anal! 5 New Girls! Are you ready for more sexy Euro Teens willing and able to take some massive deep anal drilling? That's exactly what you'll get in the long awaited second volume of this hot award-nominated series!

Starring : Unknow…
Screenshot

Click Vào Screenshot Xem Lớn Hơn
Please Click On Image To Enlarge



Download



Fshare 1 link

Code:
http://www.fshare.vn/folder/T38RSYMWJT/

Encoder
Code:
Jiggly

Uploader
Code:
zuizuivth
__________________
Người Không Buồn...hihihi
  Trả lời kèm theo trích dẫn
Cũ 01-26-2013, 08:17 AM   #22
tranhoang852400
Dậy Thì
 
Ngày gia nhập: Aug 2011
Bài gửi: 51
tranhoang852400 Thái Giám
tranhoang852400 vẫn chưa có mặt trong diễn đàn
Mặc định

phim hay , diễn viên đẹp , chất lượng hình ảnh tuyệt vời, mong chủ thớt tiếp tục phát huy!!!!
  Trả lời kèm theo trích dẫn
Cũ 01-28-2013, 12:10 AM   #23
zuizuivth
Đại Gia Lầu Xanh
 
Avatar của zuizuivth
 
Ngày gia nhập: Aug 2011
Nơi cư ngụ: Ở Thành Phố Đà Lạt hihi
Bài gửi: 882
zuizuivth Cu cửngzuizuivth Cu cửngzuizuivth Cu cửngzuizuivth Cu cửngzuizuivth Cu cửngzuizuivth Cu cửngzuizuivth Cu cửng
zuizuivth vẫn chưa có mặt trong diễn đàn
Mặc định

Anal Teen Dreams

Front Image


Back Image


Test Screen


General Information

Code:
General

Format                                   : AVI
Format/Info                              : Audio Video Interleave
File size                                : 697 MiB
Duration                                 : 1h 25mn
Overall bit rate mode                    : Variable
Overall bit rate                         : 1 139 Kbps
Writing application                      : VirtualDubMod 1.5.10.2 (build 2540/release)
Writing library                          : VirtualDubMod build 2540/release

Video
ID                                       : 0
Format                                   : MPEG-4 Visual
Format profile                           : Advanced Simple@L5
Format settings, BVOP                    : 3
Format settings, QPel                    : No
Format settings, GMC                     : No warppoints
Format settings, Matrix                  : Default (MPEG)
Codec ID                                 : XVID
Codec ID/Hint                            : XviD
Duration                                 : 1h 25mn
Bit rate                                 : 1 000 Kbps
Width                                    : 576 pixels
Height                                   : 320 pixels
Display aspect ratio                     : 16:9
Frame rate                               : 29.970 fps
Color space                              : YUV
Chroma subsampling                       : 4:2:0
Bit depth                                : 8 bits
Scan type                                : Progressive
Compression mode                         : Lossy
Bits/(Pixel*Frame)                       : 0.181
Stream size                              : 611 MiB (88%)
Writing library                          : XviD 1.2.1 (UTC 2008-12-04)

Audio
ID                                       : 1
Format                                   : MPEG Audio
Format version                           : Version 1
Format profile                           : Layer 3
Mode                                     : Joint stereo
Mode extension                           : MS Stereo
Codec ID                                 : 55
Codec ID/Hint                            : MP3
Duration                                 : 1h 25mn
Bit rate mode                            : Variable
Bit rate                                 : 128 Kbps
Channel(s)                               : 2 channels
Sampling rate                            : 48.0 KHz
Compression mode                         : Lossy
Stream size                              : 76.9 MiB (11%)
Alignment                                : Aligned on interleaves
Interleave, duration                     : 24 ms (0.72 video frame)
Interleave, preload duration             : 155 ms
Writing library                          : LAME3.90.
Encoding settings                        : -m j -V 4 -q 2 -lowpass 17.6 --abr 128
Plots

Trích dẫn:
An Axel Braun Euro Trip! Five Anal Scenes! 100% Anal! 5 New Girls! Award Winning director Axel Braun travels to Russia to find the freshest, prettiest, sluttiest Euro teens and introduce them to the pleasures of deep anal sex. In the first volume of this scorching new series!

Starring : Unknown…
Screenshot

Click Vào Screenshot Xem Lớn Hơn
Please Click On Image To Enlarge




Download



Fshare 1 link

Code:
http://www.fshare.vn/folder/THDK9JHVDT/

Encoder
Code:
Jiggly

Uploader
Code:
zuizuivth
__________________
Người Không Buồn...hihihi
  Trả lời kèm theo trích dẫn
Cũ 01-28-2013, 12:14 AM   #24
zuizuivth
Đại Gia Lầu Xanh
 
Avatar của zuizuivth
 
Ngày gia nhập: Aug 2011
Nơi cư ngụ: Ở Thành Phố Đà Lạt hihi
Bài gửi: 882
zuizuivth Cu cửngzuizuivth Cu cửngzuizuivth Cu cửngzuizuivth Cu cửngzuizuivth Cu cửngzuizuivth Cu cửngzuizuivth Cu cửng
zuizuivth vẫn chưa có mặt trong diễn đàn
Mặc định

The Innocence Of Youth 2

Front Image


Back Image


Test Screen


General Information CD1(Full 2CD)

Code:
General

cd1.avi
Format                                   : AVI
Format/Info                              : Audio Video Interleave
File size                                : 697 MiB
Duration                                 : 1h 1mn
Overall bit rate mode                    : Variable
Overall bit rate                         : 1 572 Kbps
Writing application                      : VirtualDubMod 1.5.10.2 (build 2540/release)
Writing library                          : VirtualDubMod build 2540/release

Video
ID                                       : 0
Format                                   : MPEG-4 Visual
Format profile                           : Advanced Simple@L5
Format settings, BVOP                    : 3
Format settings, QPel                    : No
Format settings, GMC                     : No warppoints
Format settings, Matrix                  : Default (MPEG)
Codec ID                                 : XVID
Codec ID/Hint                            : XviD
Duration                                 : 1h 1mn
Bit rate                                 : 1 436 Kbps
Width                                    : 640 pixels
Height                                   : 352 pixels
Display aspect ratio                     : 16:9
Frame rate                               : 23.976 fps
Color space                              : YUV
Chroma subsampling                       : 4:2:0
Bit depth                                : 8 bits
Scan type                                : Progressive
Compression mode                         : Lossy
Bits/(Pixel*Frame)                       : 0.266
Stream size                              : 636 MiB (91%)
Writing library                          : XviD 1.2.1 (UTC 2008-12-04)

Audio
ID                                       : 1
Format                                   : MPEG Audio
Format version                           : Version 1
Format profile                           : Layer 3
Mode                                     : Joint stereo
Codec ID                                 : 55
Codec ID/Hint                            : MP3
Duration                                 : 1h 1mn
Bit rate mode                            : Variable
Bit rate                                 : 128 Kbps
Channel(s)                               : 2 channels
Sampling rate                            : 48.0 KHz
Compression mode                         : Lossy
Stream size                              : 54.5 MiB (8%)
Alignment                                : Aligned on interleaves
Interleave, duration                     : 24 ms (0.58 video frame)
Interleave, preload duration             : 540 ms
Writing library                          : LAME3.90.
Encoding settings                        : -m j -V 4 -q 2 -lowpass 17.6 --abr 128
Plots

Trích dẫn:
Featuring Jenna J Ross! These cuties are young and sweet, but far from innocent! Join Jenna J. Ross, Sydnee Taylor, Remy La Croix, and Molly Bennett in another soaking wet episode of sexual debauchery and lost youth. There's over 2 hours of sexy teen domination with lessons of hard cock and multiple orgasms awaiting these sluts at every turn!

Starring: Ramon Nomar, Remy LaCroix, Molly Bennett, Jenna J Ross, Sydnee Taylor, Mick Blue, Mark Ashley, Michael Vegas
Screenshot CD1(Full 2 CD)

Click Vào Screenshot Xem Lớn Hơn
Please Click On Image To Enlarge



Download



Fshare 1 link

Code:
http://www.fshare.vn/folder/TY4NF7V3NT/

Encoder
Code:
Jiggly

Uploader
Code:
zuizuivth
__________________
Người Không Buồn...hihihi
  Trả lời kèm theo trích dẫn
Cũ 01-28-2013, 12:19 AM   #25
zuizuivth
Đại Gia Lầu Xanh
 
Avatar của zuizuivth
 
Ngày gia nhập: Aug 2011
Nơi cư ngụ: Ở Thành Phố Đà Lạt hihi
Bài gửi: 882
zuizuivth Cu cửngzuizuivth Cu cửngzuizuivth Cu cửngzuizuivth Cu cửngzuizuivth Cu cửngzuizuivth Cu cửngzuizuivth Cu cửng
zuizuivth vẫn chưa có mặt trong diễn đàn
Mặc định

The Innocence Of Youth

Front Image


Back Image


Test Screen


General Information

Code:
General

Format                                   : AVI
Format/Info                              : Audio Video Interleave
File size                                : 700 MiB
Duration                                 : 1h 35mn
Overall bit rate mode                    : Variable
Overall bit rate                         : 1 027 Kbps
Writing application                      : VirtualDubMod 1.5.10.2 (build 2540/release)
Writing library                          : VirtualDubMod build 2540/release

Video
ID                                       : 0
Format                                   : MPEG-4 Visual
Format profile                           : Advanced Simple@L5
Format settings, BVOP                    : 3
Format settings, QPel                    : No
Format settings, GMC                     : No warppoints
Format settings, Matrix                  : Default (MPEG)
Codec ID                                 : XVID
Codec ID/Hint                            : XviD
Duration                                 : 1h 35mn
Bit rate                                 : 888 Kbps
Width                                    : 576 pixels
Height                                   : 320 pixels
Display aspect ratio                     : 16:9
Frame rate                               : 23.976 fps
Color space                              : YUV
Chroma subsampling                       : 4:2:0
Bit depth                                : 8 bits
Scan type                                : Progressive
Compression mode                         : Lossy
Bits/(Pixel*Frame)                       : 0.201
Stream size                              : 605 MiB (86%)
Writing library                          : XviD 1.2.1 (UTC 2008-12-04)

Audio
ID                                       : 1
Format                                   : MPEG Audio
Format version                           : Version 1
Format profile                           : Layer 3
Mode                                     : Joint stereo
Mode extension                           : MS Stereo
Codec ID                                 : 55
Codec ID/Hint                            : MP3
Duration                                 : 1h 35mn
Bit rate mode                            : Variable
Bit rate                                 : 128 Kbps
Channel(s)                               : 2 channels
Sampling rate                            : 48.0 KHz
Compression mode                         : Lossy
Stream size                              : 86.7 MiB (12%)
Alignment                                : Aligned on interleaves
Interleave, duration                     : 24 ms (0.58 video frame)
Interleave, preload duration             : 528 ms
Writing library                          : LAME3.90.
Encoding settings                        : -m j -V 4 -q 2 -lowpass 17.6 --abr 128
Plots

Trích dẫn:
Featuring Kendall Karson! These girls look so sweet and innocent, but these young cuties harbor a very naughty secret. Kendall Karson, Gia Steel, Chastity Lynn and Riley Reid are as slutty as they cum! So get it up and watch these tight little angels stroke, suck and fuck every last ounce of innocence from their youth.

Starring: Danny Mountain, Mark Ashley, Chastity Lynn, Riley Reid, Michael Vegas, Gia Steel, Richie
Screenshot

Click Vào Screenshot Xem Lớn Hơn
Please Click On Image To Enlarge



Download



Fshare 1 link

Code:
http://www.fshare.vn/folder/TJ8WRRHTST/

Encoder
Code:
Jiggly

Uploader
Code:
zuizuivth
__________________
Người Không Buồn...hihihi
  Trả lời kèm theo trích dẫn
Cũ 01-28-2013, 12:31 AM   #26
zuizuivth
Đại Gia Lầu Xanh
 
Avatar của zuizuivth
 
Ngày gia nhập: Aug 2011
Nơi cư ngụ: Ở Thành Phố Đà Lạt hihi
Bài gửi: 882
zuizuivth Cu cửngzuizuivth Cu cửngzuizuivth Cu cửngzuizuivth Cu cửngzuizuivth Cu cửngzuizuivth Cu cửngzuizuivth Cu cửng
zuizuivth vẫn chưa có mặt trong diễn đàn
Mặc định

Teens In Tight Jeans 3

Front Image


Back Image


Test Screen


General Information

Code:
General

Format                                   : MPEG-4
Format profile                           : Base Media
Codec ID                                 : isom
File size                                : 1.10 GiB
Duration                                 : 2h 0mn
Overall bit rate mode                    : Variable
Overall bit rate                         : 1 301 Kbps
Encoded date                             : UTC 2013-01-25 03:09:49
Tagged date                              : UTC 2013-01-25 03:09:49

Video
ID                                       : 1
Format                                   : AVC
Format/Info                              : Advanced Video Codec
Format profile                           : High@L3.1
Format settings, CABAC                   : Yes
Format settings, ReFrames                : 5 frames
Codec ID                                 : avc1
Codec ID/Info                            : Advanced Video Coding
Duration                                 : 2h 0mn
Bit rate                                 : 1 204 Kbps
Maximum bit rate                         : 4 393 Kbps
Width                                    : 704 pixels
Height                                   : 396 pixels
Display aspect ratio                     : 16:9
Frame rate mode                          : Constant
Frame rate                               : 23.976 fps
Color space                              : YUV
Chroma subsampling                       : 4:2:0
Bit depth                                : 8 bits
Scan type                                : Progressive
Bits/(Pixel*Frame)                       : 0.180
Stream size                              : 1.02 GiB (93%)
Title                                    : 264#trackID=1:fps=23.976@GPAC0.5.1-DEV-rev4283
Writing library                          : x264 core 129 r2245 bc13772
Encoding settings                        : cabac=1 / ref=5 / deblock=1:0:0 / analyse=0x3:0x113 / me=umh / subme=8 / psy=1 / psy_rd=1.00:0.00 / mixed_ref=1 / me_range=16 / chroma_me=1 / trellis=1 / 8x8dct=1 / cqm=0 / deadzone=21,11 / fast_pskip=0 / chroma_qp_offset=-2 / threads=12 / lookahead_threads=2 / sliced_threads=0 / nr=0 / decimate=1 / interlaced=0 / bluray_compat=0 / constrained_intra=0 / bframes=3 / b_pyramid=2 / b_adapt=2 / b_bias=0 / direct=3 / weightb=1 / open_gop=0 / weightp=2 / keyint=240 / keyint_min=23 / scenecut=40 / intra_refresh=0 / rc_lookahead=50 / rc=crf / mbtree=1 / crf=19.0 / qcomp=0.60 / qpmin=0 / qpmax=69 / qpstep=4 / ip_ratio=1.40 / aq=1:1.00
Encoded date                             : UTC 2013-01-25 03:09:49
Tagged date                              : UTC 2013-01-25 03:10:14

Audio
ID                                       : 2
Format                                   : AAC
Format/Info                              : Advanced Audio Codec
Format profile                           : LC
Codec ID                                 : 40
Duration                                 : 2h 0mn
Bit rate mode                            : Variable
Bit rate                                 : 93.2 Kbps
Maximum bit rate                         : 99.0 Kbps
Channel(s)                               : 1 channel
Channel positions                        : Front: C
Sampling rate                            : 48.0 KHz
Compression mode                         : Lossy
Stream size                              : 80.6 MiB (7%)
Encoded date                             : UTC 2013-01-25 02:08:25
Tagged date                              : UTC 2013-01-25 03:10:14
Plots

Trích dẫn:
Hot Teenage Cuties In Tight Jeans! Fresh Pussies! Sucking Hard Dick! After School Snack! Lollipop Babes! Hard Teen Fucking! Tight Pink Holes! Description: Back by popular demand! These hot little harlots are so horny they won't wait to peel off their skin tight jeans before they start fucking! Sadie Holmes leads this cast of insatiable sluts who prefer to peek-a-boo their sweet little asses and pussies, just wiggling out of their jeans far enough to take in a big cock nice and tight!

Starring: Madelyn Monroe, Lola Foxx, Zoey Nixon, Stacie Jaxxx, Mark Wood, John Strong, Billy Glide, Will Powers, Tommy Pistol, Sadie Holmes
Screenshot

Click Vào Screenshot Xem Lớn Hơn
Please Click On Image To Enlarge



Download



Fshare 1 link

Code:
http://www.fshare.vn/folder/TRQ6B0JXQT/

Encoder
Code:
Pr0nStarS

Uploader
Code:
zuizuivth
__________________
Người Không Buồn...hihihi
  Trả lời kèm theo trích dẫn
Cũ 01-30-2013, 12:21 AM   #27
zuizuivth
Đại Gia Lầu Xanh
 
Avatar của zuizuivth
 
Ngày gia nhập: Aug 2011
Nơi cư ngụ: Ở Thành Phố Đà Lạt hihi
Bài gửi: 882
zuizuivth Cu cửngzuizuivth Cu cửngzuizuivth Cu cửngzuizuivth Cu cửngzuizuivth Cu cửngzuizuivth Cu cửngzuizuivth Cu cửng
zuizuivth vẫn chưa có mặt trong diễn đàn
Mặc định

Anal Car Wash Angels

Front Image


Back Image


Test Screen


General Information Scene 1(Full 5 Scene)

Code:
General

Format                                   : MPEG-4
Format profile                           : Base Media
Codec ID                                 : isom
File size : 210 MiB Duration : 20mn 4s
Overall bit rate mode : Variable Overall bit rate : 1 464 Kbps Writing application : Lavf52.102.0 Video ID : 1 Format : AVC Format/Info : Advanced Video Codec Format profile : High@L3.1 Format settings, CABAC : Yes Format settings, ReFrames : 5 frames Codec ID : avc1 Codec ID/Info : Advanced Video Coding Duration : 20mn 4s Bit rate : 1 300 Kbps Width : 720 pixels Height : 400 pixels Display aspect ratio : 16:9 Frame rate mode : Constant Frame rate : 23.976 fps Color space : YUV Chroma subsampling : 4:2:0 Bit depth : 8 bits Scan type : Progressive Bits/(Pixel*Frame) : 0.188 Stream size : 186 MiB (88%) Writing library : x264 core 114 r1913 5fd3dce Encoding settings : cabac=1 / ref=5 / deblock=1:0:0 / analyse=0x3:0x113 / me=umh / subme=8 / psy=1 / psy_rd=1.00:0.00 / mixed_ref=1 / me_range=16 / chroma_me=1 / trellis=1 / 8x8dct=1 / cqm=0 / deadzone=21,11 / fast_pskip=1 / chroma_qp_offset=-2 / threads=6 / sliced_threads=0 / nr=0 / decimate=1 / interlaced=0 / constrained_intra=0 / bframes=3 / b_pyramid=2 / b_adapt=2 / b_bias=0 / direct=3 / weightb=1 / open_gop=0 / weightp=2 / keyint=60 / keyint_min=25 / scenecut=40 / intra_refresh=0 / rc_lookahead=50 / rc=abr / mbtree=1 / bitrate=1300 / ratetol=1.0 / qcomp=0.60 / qpmin=10 / qpmax=51 / qpstep=4 / ip_ratio=1.41 / aq=1:1.00 Tagged date : UTC 2012-10-18 01:11:07 Audio ID : 2 Format : AAC Format/Info : Advanced Audio Codec Format profile : LC Codec ID : 40 Duration : 20mn 4s Bit rate mode : Variable Bit rate : 96.0 Kbps Channel(s) : 2 channels Channel positions : Front: L R Sampling rate : 48.0 KHz Compression mode : Lossy Stream size : 13.8 MiB (7%) Tagged date : UTC 2012-10-18 01:11:07
Plots

Trích dẫn:
Unknow…

Starring: Angelina, Danny Mountain, Krissy Lynn, Billy Glide, Jessie Rogers, Lily Labeau, Alan Stafford, Will Powers, Barry Scott, Cassandra Cruz
Screenshot Scene 1(Full 5 Scene)

Click Vào Screenshot Xem Lớn Hơn
Please Click On Image To Enlarge



Download



Fshare 1 link

Code:
http://www.fshare.vn/folder/TVDFCAXTVT/

Encoder
Code:
DivXfacTory

Uploader
Code:
zuizuivth
__________________
Người Không Buồn...hihihi
  Trả lời kèm theo trích dẫn
Cũ 01-30-2013, 12:25 AM   #28
zuizuivth
Đại Gia Lầu Xanh
 
Avatar của zuizuivth
 
Ngày gia nhập: Aug 2011
Nơi cư ngụ: Ở Thành Phố Đà Lạt hihi
Bài gửi: 882
zuizuivth Cu cửngzuizuivth Cu cửngzuizuivth Cu cửngzuizuivth Cu cửngzuizuivth Cu cửngzuizuivth Cu cửngzuizuivth Cu cửng
zuizuivth vẫn chưa có mặt trong diễn đàn
Mặc định

Anal Babes Gone Wild 2

Front Image


Back Image


Test Screen


General Information

Code:
General

Babes\_analbabes.mp4
Format                                   : MPEG-4
Format profile                           : Base Media
Codec ID                                 : isom
File size                                : 997 MiB
Duration                                 : 1h 26mn
Overall bit rate mode                    : Variable
Overall bit rate                         : 1 609 Kbps
Encoded date                             : UTC 2013-01-25 12:09:59
Tagged date                              : UTC 2013-01-25 12:09:59

Video
ID                                       : 1
Format                                   : AVC
Format/Info                              : Advanced Video Codec
Format profile                           : High@L3.1
Format settings, CABAC                   : Yes
Format settings, ReFrames                : 5 frames
Codec ID                                 : avc1
Codec ID/Info                            : Advanced Video Coding
Duration                                 : 1h 26mn
Bit rate                                 : 1 513 Kbps
Maximum bit rate                         : 3 325 Kbps
Width                                    : 720 pixels
Height                                   : 404 pixels
Display aspect ratio                     : 16:9
Frame rate mode                          : Constant
Frame rate                               : 29.970 fps
Color space                              : YUV
Chroma subsampling                       : 4:2:0
Bit depth                                : 8 bits
Scan type                                : Progressive
Bits/(Pixel*Frame)                       : 0.174
Stream size                              : 937 MiB (94%)
Title                                    : Ä
Writing library                          : x264 core 129 r2230 1cffe9f
Encoding settings                        : cabac=1 / ref=5 / deblock=1:0:0 / analyse=0x3:0x113 / me=umh / subme=8 / psy=1 / psy_rd=1.00:0.00 / mixed_ref=1 / me_range=16 / chroma_me=1 / trellis=1 / 8x8dct=1 / cqm=0 / deadzone=21,11 / fast_pskip=0 / chroma_qp_offset=-2 / threads=12 / lookahead_threads=2 / sliced_threads=0 / nr=0 / decimate=1 / interlaced=0 / bluray_compat=0 / constrained_intra=0 / bframes=3 / b_pyramid=2 / b_adapt=2 / b_bias=0 / direct=3 / weightb=1 / open_gop=0 / weightp=2 / keyint=300 / keyint_min=29 / scenecut=40 / intra_refresh=0 / rc_lookahead=50 / rc=crf / mbtree=1 / crf=20.0 / qcomp=0.60 / qpmin=0 / qpmax=69 / qpstep=4 / ip_ratio=1.40 / aq=1:1.00
Encoded date                             : UTC 2013-01-25 12:09:59
Tagged date                              : UTC 2013-01-25 12:14:36

Audio
ID                                       : 2
Format                                   : AAC
Format/Info                              : Advanced Audio Codec
Format profile                           : LC
Codec ID                                 : 40
Duration                                 : 1h 26mn
Bit rate mode                            : Variable
Bit rate                                 : 91.5 Kbps
Maximum bit rate                         : 97.6 Kbps
Channel(s)                               : 1 channel
Channel positions                        : Front: C
Sampling rate                            : 48.0 KHz
Compression mode                         : Lossy
Stream size                              : 56.7 MiB (6%)
Encoded date                             : UTC 2013-01-25 12:14:35
Tagged date                              : UTC 2013-01-25 12:14:36
Plots

Trích dẫn:
Hitting it from the back is the only way these girls roll! Much better than your run of the mill Girl Gone Wild, these ladies are all; each and every one of them, a completely degenerate anal fiend. Stretching out their sphincters on an over sized cock turns these mild mannered cock slobs into ass fucking queens in the blink of an eye. Feeling totally filled up in the tightest of holes just makes these girls cum harder. Every one of our filthy girls craves having her asshole pounded until their bottoms are filled with hot dick cream because we know that's how you like 'em.

Starring:
Yasmine, Cherry Jul, Angelina, Nataly, Lulu
Screenshot

Click Vào Screenshot Xem Lớn Hơn
Please Click On Image To Enlarge



Download



Fshare 1 link

Code:
http://www.fshare.vn/folder/TCBZ44R9ST/

Encoder
Code:
SLiEZE

Uploader
Code:
zuizuivth
__________________
Người Không Buồn...hihihi
  Trả lời kèm theo trích dẫn
Cũ 01-30-2013, 12:30 AM   #29
zuizuivth
Đại Gia Lầu Xanh
 
Avatar của zuizuivth
 
Ngày gia nhập: Aug 2011
Nơi cư ngụ: Ở Thành Phố Đà Lạt hihi
Bài gửi: 882
zuizuivth Cu cửngzuizuivth Cu cửngzuizuivth Cu cửngzuizuivth Cu cửngzuizuivth Cu cửngzuizuivth Cu cửngzuizuivth Cu cửng
zuizuivth vẫn chưa có mặt trong diễn đàn
Mặc định

Hairy Teens 6

Front Image


Back Image


Test Screen


General Information

Code:
General

Format                                   : MPEG-4
Format profile                           : Base Media
Codec ID                                 : isom
File size                                : 1 011 MiB
Duration                                 : 1h 48mn
Overall bit rate mode                    : Variable
Overall bit rate                         : 1 300 Kbps
Encoded date                             : UTC 2013-01-24 23:45:50
Tagged date                              : UTC 2013-01-24 23:45:50

Video
ID                                       : 1
Format                                   : AVC
Format/Info                              : Advanced Video Codec
Format profile                           : High@L3.1
Format settings, CABAC                   : Yes
Format settings, ReFrames                : 5 frames
Codec ID                                 : avc1
Codec ID/Info                            : Advanced Video Coding
Duration                                 : 1h 48mn
Bit rate                                 : 1 066 Kbps
Maximum bit rate                         : 2 897 Kbps
Width                                    : 720 pixels
Height                                   : 404 pixels
Display aspect ratio                     : 16:9
Frame rate mode                          : Constant
Frame rate                               : 25.000 fps
Color space                              : YUV
Chroma subsampling                       : 4:2:0
Bit depth                                : 8 bits
Scan type                                : Progressive
Bits/(Pixel*Frame)                       : 0.147
Stream size                              : 829 MiB (82%)
Writing library                          : x264 core 129 r2245 bc13772
Encoding settings                        : cabac=1 / ref=5 / deblock=1:0:0 / analyse=0x3:0x113 / me=umh / subme=8 / psy=1 / psy_rd=1.00:0.00 / mixed_ref=1 / me_range=16 / chroma_me=1 / trellis=1 / 8x8dct=1 / cqm=0 / deadzone=21,11 / fast_pskip=0 / chroma_qp_offset=-2 / threads=6 / lookahead_threads=1 / sliced_threads=0 / nr=0 / decimate=1 / interlaced=0 / bluray_compat=0 / constrained_intra=0 / bframes=3 / b_pyramid=2 / b_adapt=2 / b_bias=0 / direct=3 / weightb=1 / open_gop=0 / weightp=2 / keyint=250 / keyint_min=25 / scenecut=40 / intra_refresh=0 / rc_lookahead=50 / rc=crf / mbtree=1 / crf=20.0 / qcomp=0.60 / qpmin=0 / qpmax=69 / qpstep=4 / ip_ratio=1.40 / aq=1:1.00
Encoded date                             : UTC 2013-01-24 23:45:50
Tagged date                              : UTC 2013-01-24 23:46:11

Audio
ID                                       : 2
Format                                   : AAC
Format/Info                              : Advanced Audio Codec
Format profile                           : LC
Codec ID                                 : 40
Duration                                 : 1h 48mn
Bit rate mode                            : Variable
Bit rate                                 : 230 Kbps
Maximum bit rate                         : 252 Kbps
Channel(s)                               : 2 channels
Channel positions                        : Front: L R
Sampling rate                            : 48.0 KHz
Compression mode                         : Lossy
Stream size                              : 179 MiB (18%)
Encoded date                             : UTC 2013-01-24 23:46:05
Tagged date                              : UTC 2013-01-24 23:46:11
Trích dẫn:
Plots

"Not all young girls shave their pussies, on the contrary: a lot of them are very proud of their pubic bush. In this video we have collected ten of them showing you a hairy cunt can be a joy by itself!"

Starring: Unknow…
Screenshot

Click Vào Screenshot Xem Lớn Hơn
Please Click On Image To Enlarge



Download



Fshare 1 link

Code:
http://www.fshare.vn/folder/TV6JNJ0KVT/

Encoder
Code:
UPPERCUT

Uploader
Code:
zuizuivth
__________________
Người Không Buồn...hihihi
  Trả lời kèm theo trích dẫn
Cũ 01-30-2013, 12:34 AM   #30
zuizuivth
Đại Gia Lầu Xanh
 
Avatar của zuizuivth
 
Ngày gia nhập: Aug 2011
Nơi cư ngụ: Ở Thành Phố Đà Lạt hihi
Bài gửi: 882
zuizuivth Cu cửngzuizuivth Cu cửngzuizuivth Cu cửngzuizuivth Cu cửngzuizuivth Cu cửngzuizuivth Cu cửngzuizuivth Cu cửng
zuizuivth vẫn chưa có mặt trong diễn đàn
Mặc định

Dani Daniels Dare

Front Image



Back Image




Test Screen


General Information CD1 (Full 2 CD)
Code:
General

Dare\_cd1.avi
Format                                   : AVI
Format/Info                              : Audio Video Interleave
File size : 698 MiB Duration : 1h 32mn
Overall bit rate mode : Variable Overall bit rate : 1 049 Kbps Writing application : VirtualDubMod 1.5.10.2 (build 2540/release) Writing library : VirtualDubMod build 2540/release Video ID : 0 Format : MPEG-4 Visual Format profile : Simple@L3 Format settings, BVOP : 3 Format settings, QPel : No Format settings, GMC : No warppoints Format settings, Matrix : Default (MPEG) Codec ID : XVID Codec ID/Hint : XviD Duration : 1h 32mn Bit rate : 909 Kbps Width : 576 pixels Height : 320 pixels Display aspect ratio : 16:9 Frame rate : 23.976 fps Color space : YUV Chroma subsampling : 4:2:0 Bit depth : 8 bits Scan type : Progressive Compression mode : Lossy Bits/(Pixel*Frame) : 0.206 Stream size : 604 MiB (87%) Writing library : XviD 1.0.3 (UTC 2004-12-20) Audio ID : 1 Format : MPEG Audio Format version : Version 1 Format profile : Layer 3 Mode : Joint stereo Mode extension : MS Stereo Codec ID : 55 Codec ID/Hint : MP3 Duration : 1h 32mn Bit rate mode : Variable Bit rate : 128 Kbps Channel(s) : 2 channels Sampling rate : 48.0 KHz Compression mode : Lossy Stream size : 85.0 MiB (12%) Alignment : Aligned on interleaves Interleave, duration : 24 ms (0.58 video frame) Interleave, preload duration : 144 ms Writing library : LAME3.90. Encoding settings : -m j -V 4 -q 2 -lowpass 17.6 --abr 128
Plots
Trích dẫn:
Featuring Dani's 1st Boy Girl Scenes! An Iconic Beauty. An Unrivaled Passion! Dani Daniels is one of the most beautiful and sensual star ever! Now, for the very first time, watch her perform in stunning, Boy/Girl scenes full of perversion, passion and intense hardcore action!

Starring: Dani Daniels, Sinn Sage, Karlie Montana
Screenshot CD1 (Full 2 CD)

Click Vào Screenshot Xem Lớn Hơn
Please Click On Image To Enlarge



Download



Fshare 1 link

Code:
http://www.fshare.vn/folder/TMFKC54P9T/

Encoder
Code:
Jiggly

Uploader
Code:
zuizuivth
__________________
Người Không Buồn...hihihi
  Trả lời kèm theo trích dẫn
Gửi trả lời

Tags
sex au, tokyo - nong, zuizuivth, zuizuivth1


Quyền hạn Gửi bài
Bạn không thể gửi chủ đề
Bạn không thể gửi trả lời
Bạn không thể gửi đính kèm
Bạn không thể sửa bài của mình

Mã BB đang Mở
[IMG] đang Mở
Mã HTML đang Tắt

Chuyển đến Chuyên mục

free porn dvd online | Animefoto.Com | Blog LauXanh- Advertise


Tất cả thời gian được tính theo GMT +7. Bây giờ là 05:10 PM.


Powered by vBulletin® Version 3.8.8
Copyright ©2000 - 2014, Jelsoft Enterprises Ltd.
LauXanh.Us is the best website for sex viet, phim sex, phim sex online, free phim, phim sex link nhanh, phim nguoi lon, phim cap 4, fuck nhau porn. Ban co the xem hinh sex, angelviet, phim nguoi lon, 69, online phim sex, download phim sex, phim sex download, xem phim sex, sex, phim online, phim sex teen 8x, online phim, phim lau xanh, lauxanh, coi phim sex, sex mien phi, online sex, phim sex mien phi online, phim gai xinh, gaixinh online, sex gai xinh. free 100% an toan safe. Phong chieu phim sex online lauxanh.org, Phim sex online download toc do cao, link nhanh, duoc upload hang ngay. Kho hinh sex viet nam, cac em cave viet nam xinh tuoi, hinh sexy nhat cua vietnam.