Akiba girls - Uncen - Vsub - Esub

Thảo luận trong 'Hentai - Hoạt Hình' bắt đầu bởi RisskyHT, 18/7/12.

Trạng thái chủ đề:
Không mở trả lời sau này.
  1. RisskyHT

    RisskyHT Còn Bú Sữa Mẹ Verified

    Bài viết:
    3
    Đã được thích:
    0
    [​IMG]

    Download:

    http://www.mediafire.com/?d37ahoc8271qzdd

    Pass: RisskyHT

    Tập 1:
    [​IMG]

    Mã:
    General
    Unique ID                                : 195725752727140144147744196028414835940 (0x933F68A78AD6361D97AEAE5789583CE4)
    Complete name                            : D:\New Folder\Akiba girls 1.mkv
    Format                                   : Matroska
    Format version                           : Version 2
    File size                                : 227 MiB
    Duration                                 : 29mn 51s
    Overall bit rate mode                    : Variable
    Overall bit rate                         : 1 064 Kbps
    Movie name                               : [Baka-sub] Akiba Girls ep 1
    Encoded date                             : UTC 2009-11-05 15:14:40
    Writing application                      : mkvmerge v2.7.0 ('Do It Again') built on Apr 15 2009 00:27:10
    Writing library                          : libebml v0.7.7 + libmatroska v0.8.1
    Attachment                               : Yes / Yes / Yes
    
    Video
    ID                                       : 1
    Format                                   : MPEG-4 Visual
    Format profile                           : Advanced [email protected]
    Format settings, BVOP                    : Yes
    Format settings, QPel                    : Yes
    Format settings, GMC                     : No warppoints
    Format settings, Matrix                  : Default (H.263)
    Codec ID                                 : XVID
    Codec ID/Hint                            : XviD
    Duration                                 : 29mn 51s
    Bit rate                                 : 915 Kbps
    Width                                    : 640 pixels
    Height                                   : 480 pixels
    Display aspect ratio                     : 4:3
    Frame rate                               : 23.976 fps
    Color space                              : YUV
    Chroma subsampling                       : 4:2:0
    Bit depth                                : 8 bits
    Scan type                                : Progressive
    Compression mode                         : Lossy
    Bits/(Pixel*Frame)                       : 0.124
    Stream size                              : 195 MiB (86%)
    Title                                    : [Baka-sub] Akiba Girls ep 1
    Writing library                          : XviD 1.1.0 Beta1 (UTC 2005-01-16)
    Language                                 : Japanese
    Default                                  : Yes
    Forced                                   : No
    
    Audio
    ID                                       : 2
    Format                                   : Vorbis
    Format settings, Floor                   : 1
    Codec ID                                 : A_VORBIS
    Duration                                 : 29mn 51s
    Bit rate mode                            : Variable
    Bit rate                                 : 128 Kbps
    Channel(s)                               : 2 channels
    Sampling rate                            : 48.0 KHz
    Compression mode                         : Lossy
    Stream size                              : 27.3 MiB (12%)
    Title                                    : [Baka-sub] Akiba Girls ep 1
    Writing library                          : libVorbis 1.0.1 (UTC 2003-09-09)
    Language                                 : Japanese
    Default                                  : Yes
    Forced                                   : No
    Writing application                      : Made with BeSweet v1.5b29
    Encoded_Application/Url                  : http://DSPguru.doom9.org
    
    Text
    ID                                       : 3
    Format                                   : ASS
    Codec ID                                 : S_TEXT/ASS
    Codec ID/Info                            : Advanced Sub Station Alpha
    Compression mode                         : Lossless
    Title                                    : [Baka-sub] Akiba Girls ep 1
    Language                                 : Vietnamese
    Default                                  : Yes
    Forced                                   : No
    
    
    Tập 2:
    [​IMG]

    Mã:
    General
    Unique ID                                : 191358843560456827525824341291559227487 (0x8FF65F68D9B1AC858B1DAE7D0007105F)
    Complete name                            : D:\New Folder\Akiba girls 2.mkv
    Format                                   : Matroska
    Format version                           : Version 2
    File size                                : 229 MiB
    Duration                                 : 29mn 44s
    Overall bit rate mode                    : Variable
    Overall bit rate                         : 1 075 Kbps
    Movie name                               : [Baka-sub] Akiba Girls ep 2
    Encoded date                             : UTC 2009-11-07 10:41:23
    Writing application                      : mkvmerge v2.7.0 ('Do It Again') built on Apr 15 2009 00:27:10
    Writing library                          : libebml v0.7.7 + libmatroska v0.8.1
    Attachment                               : Yes / Yes / Yes
    
    Video
    ID                                       : 1
    Format                                   : MPEG-4 Visual
    Format profile                           : Advanced [email protected]
    Format settings, BVOP                    : Yes
    Format settings, QPel                    : Yes
    Format settings, GMC                     : 3 warppoints
    Format settings, Matrix                  : Default (H.263)
    Codec ID                                 : XVID
    Codec ID/Hint                            : XviD
    Duration                                 : 29mn 44s
    Bit rate                                 : 926 Kbps
    Width                                    : 640 pixels
    Height                                   : 480 pixels
    Display aspect ratio                     : 4:3
    Frame rate                               : 23.976 fps
    Color space                              : YUV
    Chroma subsampling                       : 4:2:0
    Bit depth                                : 8 bits
    Scan type                                : Progressive
    Compression mode                         : Lossy
    Bits/(Pixel*Frame)                       : 0.126
    Stream size                              : 197 MiB (86%)
    Writing library                          : XviD 1.1.0 Beta1 (UTC 2005-01-16)
    Language                                 : Japanese
    Default                                  : Yes
    Forced                                   : No
    
    Audio
    ID                                       : 2
    Format                                   : Vorbis
    Format settings, Floor                   : 1
    Codec ID                                 : A_VORBIS
    Duration                                 : 29mn 44s
    Bit rate mode                            : Variable
    Bit rate                                 : 128 Kbps
    Channel(s)                               : 2 channels
    Sampling rate                            : 48.0 KHz
    Compression mode                         : Lossy
    Stream size                              : 27.2 MiB (12%)
    Writing library                          : libVorbis 1.0.1 (UTC 2003-09-09)
    Language                                 : Japanese
    Default                                  : Yes
    Forced                                   : No
    Writing application                      : Made with BeSweet v1.5b29
    Encoded_Application/Url                  : http://DSPguru.doom9.org
    
    Text
    ID                                       : 3
    Format                                   : ASS
    Codec ID                                 : S_TEXT/ASS
    Codec ID/Info                            : Advanced Sub Station Alpha
    Compression mode                         : Lossless
    Title                                    : [Baka-sub] Akiba Girls ep 2
    Language                                 : Vietnamese
    Default                                  : Yes
    Forced                                   : No
    
    
    Tập 3:
    [​IMG]

    Mã:
    General
    Unique ID                                : 210500188161467322571305544062462910345 (0x9E5CDC8FB74A1FD3880F16C6B6A0DF89)
    Complete name                            : D:\New Folder\Akiba girls 3.mkv
    Format                                   : Matroska
    Format version                           : Version 2
    File size                                : 258 MiB
    Duration                                 : 30mn 13s
    Overall bit rate mode                    : Variable
    Overall bit rate                         : 1 195 Kbps
    Movie name                               : [Baka-sub] Akiba Girls ep 3
    Encoded date                             : UTC 2009-11-08 03:54:07
    Writing application                      : mkvmerge v2.7.0 ('Do It Again') built on Apr 15 2009 00:27:10
    Writing library                          : libebml v0.7.7 + libmatroska v0.8.1
    Attachment                               : Yes / Yes / Yes
    
    Video
    ID                                       : 1
    Format                                   : AVC
    Format/Info                              : Advanced Video Codec
    Format profile                           : [email protected]
    Format settings, CABAC                   : Yes
    Format settings, ReFrames                : 2 frames
    Codec ID                                 : V_MPEG4/ISO/AVC
    Bit rate                                 : 1 043 Kbps
    Nominal bit rate                         : 1 364 Kbps
    Width                                    : 640 pixels
    Height                                   : 480 pixels
    Display aspect ratio                     : 4:3
    Color space                              : YUV
    Chroma subsampling                       : 4:2:0
    Bit depth                                : 8 bits
    Scan type                                : Progressive
    Bits/(Pixel*Frame)                       : 0.148
    Title                                    : h264
    Writing library                          : x264 core 46 svn-504
    Encoding settings                        : cabac=1 / ref=1 / deblock=1:0:0 / analyse=0x3:0x113 / me=hex / subme=5 / brdo=0 / mixed_ref=0 / me_range=16 / chroma_me=1 / trellis=1 / 8x8dct=1 / cqm=0 / chroma_qp_offset=0 / slices=1 / nr=0 / decimate=1 / bframes=2 / b_pyramid=0 / b_adapt=1 / b_bias=0 / direct=2 / wpredb=1 / bime=0 / keyint=250 / keyint_min=25 / scenecut=40 / rc=2pass / bitrate=1364 / ratetol=1.0 / rceq='blurCplx^(1-qComp)' / qcomp=0.60 / qpmin=10 / qpmax=51 / qpstep=4 / cplxblur=20.0 / qblur=0.5 / ip_ratio=1.40 / pb_ratio=1.30
    Language                                 : Japanese
    Default                                  : Yes
    Forced                                   : No
    
    Audio
    ID                                       : 2
    Format                                   : Vorbis
    Format settings, Floor                   : 1
    Codec ID                                 : A_VORBIS
    Duration                                 : 30mn 13s
    Bit rate mode                            : Variable
    Bit rate                                 : 128 Kbps
    Channel(s)                               : 2 channels
    Sampling rate                            : 48.0 KHz
    Compression mode                         : Lossy
    Stream size                              : 27.7 MiB (11%)
    Writing library                          : libVorbis 1.0.1 (UTC 2003-09-09)
    Language                                 : Japanese
    Default                                  : Yes
    Forced                                   : No
    Writing application                      : Made with BeSweet v1.5b30
    Encoded_Application/Url                  : http://DSPguru.doom9.org
    
    Text
    ID                                       : 3
    Format                                   : ASS
    Codec ID                                 : S_TEXT/ASS
    Codec ID/Info                            : Advanced Sub Station Alpha
    Compression mode                         : Lossless
    Title                                    : [Baka-sub] Akiba Girls ep 3
    Language                                 : Vietnamese
    Default                                  : Yes
    Forced                                   : No
    
    
     
    Đang tải...

    Similar Threads Diễn đàn Date
    [Fshare][Eng-Uncen]The Hentai Academy Hentai - Hoạt Hình 15/8/14
    After Class Lesson - Uncen - Vsub - Esub Hentai - Hoạt Hình 18/7/12
    Makai Tenshi Djibril SS I (Uncen - Vietsub) Hentai - Hoạt Hình 15/9/11
    Heartwork: Symphony of Destruction (Uncen-Vietsub) Hentai - Hoạt Hình 11/8/11
    Evergrowing hentai Uncen collection (fix link) Hentai - Hoạt Hình 5/3/11

Trạng thái chủ đề:
Không mở trả lời sau này.

Chia sẻ trang này