1. Hiện tại có nhiều bạn ko nhận được Email kích hoạt từ hệ thống, BQT đã rà soát và thấy đa số các trường hợp này dùng GMAIL. Trong thời gian chờ khắc phục, các bạn có thể tạm dùng các email khác để đăng ký và nhận email kích hoạt ( Yahoo, hotmail,....). Xin cảm ơn
    Dismiss Notice

Collections Movies DVD, HD 720p 1080p[Fshare]

Thảo luận trong 'Phim Sex Âu Mỹ - Western Porn - Direct Fast Link' bắt đầu bởi noelhao, 15/10/14.

  1. noelhao

    noelhao Ultra HD4K Thành viên BQT

    Bài viết:
    6,487
    Đã được thích:
    1,309
    Em này phim rất nhiều nhưng chỉ toàn DVD hoặc DVDrip (xưa rồi mà), khi rảnh mình tìm vài DVD xem.
     
    RuaConHamChoi thích bài này.
  2. noelhao

    noelhao Ultra HD4K Thành viên BQT

    Bài viết:
    6,487
    Đã được thích:
    1,309
    OK, sẽ upload cho bạn.
     
  3. noelhao

    noelhao Ultra HD4K Thành viên BQT

    Bài viết:
    6,487
    Đã được thích:
    1,309
    Tìm được một vài phim thôi, như phim Upload 2007 chỉ có DVDrip.
     
  4. EinUchiha

    EinUchiha Còn Bú Sữa Mẹ Verified

    Bài viết:
    6
    Đã được thích:
    2
    được bộ nào hay bộ ấy bác à, hóng phim từ bác hằng ngày :D
     
    noelhao thích bài này.
  5. leetee2017

    leetee2017 Còn trinh Verified

    Bài viết:
    87
    Đã được thích:
    4
    Phim gì cũng đuợc minh thích coi những phim xư a thôi nêu có bác cho mình xin thank bác nhiều
     
    noelhao thích bài này.
  6. bd1808

    bd1808 Biết Quay Tay Verified

    Bài viết:
    134
    Đã được thích:
    2
    Toàn film hấp dẫn, cảm ơn bạn nhìu.
     
    noelhao thích bài này.
  7. leetee2017

    leetee2017 Còn trinh Verified

    Bài viết:
    87
    Đã được thích:
    4
    Bác còn film của thập niên 80 không cho em xin
     
    noelhao thích bài này.
  8. choho

    choho Xem Sex Lần Đầu Verified

    Bài viết:
    42
    Đã được thích:
    9
    không biết bác noelhao có làm mấy phim nhật cũ ko nhỉ định xin bác tí :D
     
    noelhao thích bài này.
  9. noelhao

    noelhao Ultra HD4K Thành viên BQT

    Bài viết:
    6,487
    Đã được thích:
    1,309
    Miễn là phim Unsored (không che), bạn cứ yêu cầu, nếu thấy phù hợp mình sẽ upload!
     
    RuaConHamChoi and minhduc110788 like this.
  10. itachihunter

    itachihunter Xem Sex Lần Đầu Verified

    Bài viết:
    30
    Đã được thích:
    7
    hihi thanks bác
     
  11. choho

    choho Xem Sex Lần Đầu Verified

    Bài viết:
    42
    Đã được thích:
    9
    ui tiếc quá e định xin bác phim che cơ. mà thôi cũng thks bác
     
    noelhao thích bài này.
  12. [GANON88]

    [GANON88] Dân Chơi Thứ Thiệt Verified

    Bài viết:
    465
    Đã được thích:
    27
    cho em xin film của hãng sweetsinner ah
     
    noelhao thích bài này.
  13. noelhao

    noelhao Ultra HD4K Thành viên BQT

    Bài viết:
    6,487
    Đã được thích:
    1,309
    Sory bạn! Không có thời gian, dự là qua Lễ 2-9 sẽ post!
     
  14. [GANON88]

    [GANON88] Dân Chơi Thứ Thiệt Verified

    Bài viết:
    465
    Đã được thích:
    27
    yeah, e sẽ đợi ah
     
  15. itachihunter

    itachihunter Xem Sex Lần Đầu Verified

    Bài viết:
    30
    Đã được thích:
    7
    bác noelhao ăn lễ quốc khánh vui vẻ nhé hehe
     
    noelhao thích bài này.
  16. noelhao

    noelhao Ultra HD4K Thành viên BQT

    Bài viết:
    6,487
    Đã được thích:
    1,309
    Brazzers - 171 - Making A Mess On Stepmom 2017 - Brandi Love_Lucas Frost 1080p WEB-DL

    [​IMG]

    Screenshot:


    [​IMG]

    Mediainfo:
    Mã:
    171 - Making A Mess On Stepmom 2017 - Brandi Love_Lucas Frost.mp4
    Format                      : MPEG-4
    Format profile              : Base Media
    Codec ID                    : isom (isom/iso2/avc1/mp41)
    File size                   : 2.60 GiB
    Duration                    : 30 min 45 s
    Overall bit rate            : 12.1 Mb/s
    Writing application         : Lavf57.28.100
    
    Video
    ID                          : 1
    Format                      : AVC
    Format/Info                 : Advanced Video Codec
    Format profile              : [email protected]
    Format settings, CABAC      : Yes
    Format settings, ReFrames   : 5 frames
    Codec ID                    : avc1
    Codec ID/Info               : Advanced Video Coding
    Duration                    : 30 min 45 s
    Bit rate                    : 12.0 Mb/s
    Width                       : 1 920 pixels
    Height                      : 1 080 pixels
    Display aspect ratio        : 16:9
    Frame rate mode             : Constant
    Frame rate                  : 23.976 (23976/1000) FPS
    Color space                 : YUV
    Chroma subsampling          : 4:2:0
    Bit depth                   : 8 bits
    Scan type                   : Progressive
    Bits/(Pixel*Frame)          : 0.241
    Stream size                 : 2.57 GiB (99%)
    Writing library             : x264 core 148 r2665 a01e339
    Encoding settings           : cabac=1 / ref=5 / deblock=1:0:0 / analyse=0x3:0x113 / me=umh / subme=8 / psy=1 / psy_rd=1.00:0.00 / mixed_ref=1 / me_range=16 / chroma_me=1 / trellis=1 / 8x8dct=1 / cqm=0 / deadzone=21,11 / fast_pskip=1 / chroma_qp_offset=-2 / threads=18 / lookahead_threads=3 / sliced_threads=0 / nr=0 / decimate=1 / interlaced=0 / bluray_compat=0 / constrained_intra=0 / bframes=3 / b_pyramid=2 / b_adapt=2 / b_bias=0 / direct=3 / weightb=1 / open_gop=0 / weightp=2 / keyint=60 / keyint_min=6 / scenecut=40 / intra_refresh=0 / rc_lookahead=50 / rc=abr / mbtree=1 / bitrate=12000 / ratetol=1.0 / qcomp=0.60 / qpmin=0 / qpmax=69 / qpstep=4 / ip_ratio=1.40 / aq=1:1.00
    Language                    : English
    Tagged date                 : UTC 2017-07-06 15:56:51
    
    Audio
    ID                          : 2
    Format                      : AAC
    Format/Info                 : Advanced Audio Codec
    Format profile              : LC
    Codec ID                    : 40
    Duration                    : 30 min 45 s
    Duration_LastFrame          : 21 ms
    Bit rate mode               : Constant
    Bit rate                    : 128 kb/s
    Channel(s)                  : 2 channels
    Channel positions           : Front: L R
    Sampling rate               : 48.0 kHz
    Frame rate                  : 46.875 FPS (1024 spf)
    Compression mode            : Lossy
    Stream size                 : 28.2 MiB (1%)
    Language                    : English
    Default                     : Yes
    Alternate group             : 1
    Tagged date                 : UTC 2017-07-06 15:56:51
    
    Pass giải nén (Extract rar): 9PPWM5
    Direct link:
    Mã:
    https://www.fshare.vn/file/VGD6IR1KHHPR
     
  17. noelhao

    noelhao Ultra HD4K Thành viên BQT

    Bài viết:
    6,487
    Đã được thích:
    1,309
    BRAZZERS - 172 - I'll Teach You How To Fuck My Ex - Anita Bellini_Vittoria Risi_Mike Angelo 2014 1080p WEB-DL

    [​IMG]

    Screenshot:


    [​IMG]

    Mediainfo:
    Mã:
    172 - I'll Teach You How To Fuck My Ex - Anita Bellini_Vittoria Risi_Mike Angelo 2014.mp4
    Format                      : MPEG-4
    Format profile              : Base Media
    Codec ID                    : isom (isom/iso2/avc1/mp41)
    File size                   : 2.10 GiB
    Duration                    : 23 min 52 s
    Overall bit rate            : 12.6 Mb/s
    Writing application         : Lavf55.1.100
    
    Video
    ID                          : 1
    Format                      : AVC
    Format/Info                 : Advanced Video Codec
    Format profile              : [email protected]
    Format settings, CABAC      : Yes
    Format settings, ReFrames   : 5 frames
    Codec ID                    : avc1
    Codec ID/Info               : Advanced Video Coding
    Duration                    : 23 min 51 s
    Bit rate                    : 12.0 Mb/s
    Width                       : 1 920 pixels
    Height                      : 1 080 pixels
    Display aspect ratio        : 16:9
    Frame rate mode             : Constant
    Frame rate                  : 29.970 (29970/1000) FPS
    Color space                 : YUV
    Chroma subsampling          : 4:2:0
    Bit depth                   : 8 bits
    Scan type                   : Progressive
    Bits/(Pixel*Frame)          : 0.193
    Stream size                 : 1.99 GiB (95%)
    Writing library             : x264 core 130 r2274 c832fe9
    Encoding settings           : cabac=1 / ref=5 / deblock=1:0:0 / analyse=0x3:0x113 / me=umh / subme=8 / psy=1 / psy_rd=1.00:0.00 / mixed_ref=1 / me_range=16 / chroma_me=1 / trellis=1 / 8x8dct=1 / cqm=0 / deadzone=21,11 / fast_pskip=1 / chroma_qp_offset=-2 / threads=36 / lookahead_threads=6 / sliced_threads=0 / nr=0 / decimate=1 / interlaced=0 / bluray_compat=0 / constrained_intra=0 / bframes=3 / b_pyramid=2 / b_adapt=2 / b_bias=0 / direct=3 / weightb=1 / open_gop=0 / weightp=2 / keyint=60 / keyint_min=6 / scenecut=40 / intra_refresh=0 / rc_lookahead=50 / rc=abr / mbtree=1 / bitrate=12000 / ratetol=1.0 / qcomp=0.60 / qpmin=0 / qpmax=69 / qpstep=4 / ip_ratio=1.40 / aq=1:1.00
    Tagged date                 : UTC 2014-03-14 00:37:30
    
    Audio
    ID                          : 2
    Format                      : AAC
    Format/Info                 : Advanced Audio Codec
    Format profile              : LC
    Codec ID                    : 40
    Duration                    : 23 min 52 s
    Duration_LastFrame          : 33 ms
    Bit rate mode               : Constant
    Bit rate                    : 128 kb/s
    Channel(s)                  : 2 channels
    Channel positions           : Front: L R
    Sampling rate               : 48.0 kHz
    Frame rate                  : 46.875 FPS (1024 spf)
    Compression mode            : Lossy
    Stream size                 : 21.9 MiB (1%)
    Default                     : Yes
    Alternate group             : 1
    Tagged date                 : UTC 2014-03-14 00:37:30
    
    Other #1
    ID                          : 65536
    Type                        : Hint
    Format                      : RTP
    Codec ID                    : rtp 
    Duration                    : 23 min 51 s
    Encoded date                : UTC 2014-03-14 00:37:25
    Tagged date                 : UTC 2014-03-14 00:37:30
    
    Other #2
    ID                          : 65537
    Type                        : Hint
    Format                      : RTP
    Codec ID                    : rtp 
    Duration                    : 23 min 52 s
    Encoded date                : UTC 2014-03-14 00:37:29
    Tagged date                 : UTC 2014-03-14 00:37:30
    Bit rate mode               : VBR
    
    Pass giải nén (Extract rar): UHPDCE
    Direct link:
    Mã:
    https://www.fshare.vn/file/134ZERD9U9IG
     
    RuaConHamChoi thích bài này.
  18. noelhao

    noelhao Ultra HD4K Thành viên BQT

    Bài viết:
    6,487
    Đã được thích:
    1,309
    BRAZZERS - 173 - She is Maid of Ass - Vittoria Risi_Christian Clay 2014 1080p WEB-DL

    [​IMG]

    Screenshot:


    [​IMG]

    Mediainfo:
    Mã:
    173 - She is Maid of Ass - Vittoria Risi_Christian Clay 2014.mp4
    Format                      : MPEG-4
    Format profile              : Base Media
    Codec ID                    : isom (isom/iso2/avc1/mp41)
    File size                   : 4.07 GiB
    Duration                    : 46 min 31 s
    Overall bit rate            : 12.5 Mb/s
    Writing application         : Lavf54.37.100
    
    Video
    ID                          : 1
    Format                      : AVC
    Format/Info                 : Advanced Video Codec
    Format profile              : [email protected]
    Format settings, CABAC      : Yes
    Format settings, ReFrames   : 5 frames
    Codec ID                    : avc1
    Codec ID/Info               : Advanced Video Coding
    Duration                    : 46 min 15 s
    Bit rate                    : 12.0 Mb/s
    Width                       : 1 920 pixels
    Height                      : 1 080 pixels
    Display aspect ratio        : 16:9
    Frame rate mode             : Constant
    Frame rate                  : 29.970 (29970/1000) FPS
    Color space                 : YUV
    Chroma subsampling          : 4:2:0
    Bit depth                   : 8 bits
    Scan type                   : Progressive
    Bits/(Pixel*Frame)          : 0.193
    Stream size                 : 3.87 GiB (95%)
    Writing library             : x264 core 128 r2216 198a7ea
    Encoding settings           : cabac=1 / ref=5 / deblock=1:0:0 / analyse=0x3:0x113 / me=umh / subme=8 / psy=1 / psy_rd=1.00:0.00 / mixed_ref=1 / me_range=16 / chroma_me=1 / trellis=1 / 8x8dct=1 / cqm=0 / deadzone=21,11 / fast_pskip=1 / chroma_qp_offset=-2 / threads=36 / lookahead_threads=6 / sliced_threads=0 / nr=0 / decimate=1 / interlaced=0 / bluray_compat=0 / constrained_intra=0 / bframes=3 / b_pyramid=2 / b_adapt=2 / b_bias=0 / direct=3 / weightb=1 / open_gop=0 / weightp=2 / keyint=60 / keyint_min=6 / scenecut=40 / intra_refresh=0 / rc_lookahead=50 / rc=abr / mbtree=1 / bitrate=12000 / ratetol=1.0 / qcomp=0.60 / qpmin=0 / qpmax=69 / qpstep=4 / ip_ratio=1.40 / aq=1:1.00
    Tagged date                 : UTC 2014-05-20 22:36:53
    
    Audio
    ID                          : 2
    Format                      : AAC
    Format/Info                 : Advanced Audio Codec
    Format profile              : LC
    Codec ID                    : 40
    Duration                    : 46 min 31 s
    Duration_LastFrame          : 15 s 564 ms
    Bit rate mode               : Constant
    Bit rate                    : 127 kb/s
    Channel(s)                  : 2 channels
    Channel positions           : Front: L R
    Sampling rate               : 48.0 kHz
    Frame rate                  : 46.875 FPS (1024 spf)
    Compression mode            : Lossy
    Stream size                 : 42.4 MiB (1%)
    Default                     : Yes
    Alternate group             : 1
    Tagged date                 : UTC 2014-05-20 22:36:53
    
    Other #1
    ID                          : 65536
    Type                        : Hint
    Format                      : RTP
    Codec ID                    : rtp 
    Duration                    : 46 min 15 s
    Encoded date                : UTC 2014-05-20 22:35:25
    Tagged date                 : UTC 2014-05-20 22:36:53
    
    Other #2
    ID                          : 65537
    Type                        : Hint
    Format                      : RTP
    Codec ID                    : rtp 
    Duration                    : 46 min 15 s
    Encoded date                : UTC 2014-05-20 22:36:27
    Tagged date                 : UTC 2014-05-20 22:36:53
    Bit rate mode               : VBR
    
    Pass giải nén (Extract rar): R2AKP5
    Direct link:
    Mã:
    https://www.fshare.vn/file/O7PNWCN2YG5Z
     
    RuaConHamChoi thích bài này.
  19. noelhao

    noelhao Ultra HD4K Thành viên BQT

    Bài viết:
    6,487
    Đã được thích:
    1,309
    BRAZZERS - 174 - Our Cute Little Plaything 2016 - Elsa Jean_Osa Lovely_Flash Brown 1080p WEB-DL

    [​IMG]

    Screenshot:


    [​IMG]

    Mediainfo:
    Mã:
    174 - Our Cute Little Plaything 2016 - Elsa Jean_Osa Lovely_Flash Brown.mp4
    Format                      : MPEG-4
    Format profile              : Base Media
    Codec ID                    : isom (isom/iso2/avc1/mp41)
    File size                   : 3.69 GiB
    Duration                    : 43 min 17 s
    Overall bit rate            : 12.2 Mb/s
    Writing application         : Lavf57.28.100
    
    Video
    ID                          : 1
    Format                      : AVC
    Format/Info                 : Advanced Video Codec
    Format profile              : [email protected]
    Format settings, CABAC      : Yes
    Format settings, ReFrames   : 5 frames
    Codec ID                    : avc1
    Codec ID/Info               : Advanced Video Coding
    Duration                    : 43 min 17 s
    Bit rate                    : 12.0 Mb/s
    Width                       : 1 920 pixels
    Height                      : 1 080 pixels
    Display aspect ratio        : 16:9
    Frame rate mode             : Constant
    Frame rate                  : 23.976 (24000/1001) FPS
    Color space                 : YUV
    Chroma subsampling          : 4:2:0
    Bit depth                   : 8 bits
    Scan type                   : Progressive
    Bits/(Pixel*Frame)          : 0.241
    Stream size                 : 3.65 GiB (99%)
    Writing library             : x264 core 148 r2665 a01e339
    Encoding settings           : cabac=1 / ref=5 / deblock=1:0:0 / analyse=0x3:0x113 / me=umh / subme=8 / psy=1 / psy_rd=1.00:0.00 / mixed_ref=1 / me_range=16 / chroma_me=1 / trellis=1 / 8x8dct=1 / cqm=0 / deadzone=21,11 / fast_pskip=1 / chroma_qp_offset=-2 / threads=18 / lookahead_threads=3 / sliced_threads=0 / nr=0 / decimate=1 / interlaced=0 / bluray_compat=0 / constrained_intra=0 / bframes=3 / b_pyramid=2 / b_adapt=2 / b_bias=0 / direct=3 / weightb=1 / open_gop=0 / weightp=2 / keyint=60 / keyint_min=6 / scenecut=40 / intra_refresh=0 / rc_lookahead=50 / rc=abr / mbtree=1 / bitrate=12000 / ratetol=1.0 / qcomp=0.60 / qpmin=0 / qpmax=69 / qpstep=4 / ip_ratio=1.40 / aq=1:1.00
    Language                    : English
    Tagged date                 : UTC 2017-01-18 03:51:12
    
    Audio
    ID                          : 2
    Format                      : AAC
    Format/Info                 : Advanced Audio Codec
    Format profile              : LC
    Codec ID                    : 40
    Duration                    : 43 min 17 s
    Bit rate mode               : Constant
    Bit rate                    : 128 kb/s
    Channel(s)                  : 2 channels
    Channel positions           : Front: L R
    Sampling rate               : 48.0 kHz
    Frame rate                  : 46.875 FPS (1024 spf)
    Compression mode            : Lossy
    Stream size                 : 39.8 MiB (1%)
    Language                    : English
    Default                     : Yes
    Alternate group             : 1
    Tagged date                 : UTC 2017-01-18 03:51:12
    
    Pass giải nén (Extract rar): S22ZH2
    Direct link:
    Mã:
    https://www.fshare.vn/file/RFK99CMV9EV1
     
  20. noelhao

    noelhao Ultra HD4K Thành viên BQT

    Bài viết:
    6,487
    Đã được thích:
    1,309
    BRAZZERS - 175 - Elsa Jean and Katrina Jade 2017 - Elsa Jean_Katrina Jade_Keiran Lee 1080p WEB-DL

    [​IMG]

    Screenshot:


    [​IMG]

    Mediainfo:
    Mã:
    175 - Elsa Jean  and Katrina Jade 2017 - Elsa Jean_Katrina Jade_Keiran Lee.mp4
    Format                      : MPEG-4
    Format profile              : Base Media
    Codec ID                    : isom (isom/iso2/avc1/mp41)
    File size                   : 3.10 GiB
    Duration                    : 36 min 36 s
    Overall bit rate            : 12.1 Mb/s
    Writing application         : Lavf57.28.100
    
    Video
    ID                          : 1
    Format                      : AVC
    Format/Info                 : Advanced Video Codec
    Format profile              : [email protected]
    Format settings, CABAC      : Yes
    Format settings, ReFrames   : 5 frames
    Codec ID                    : avc1
    Codec ID/Info               : Advanced Video Coding
    Duration                    : 36 min 36 s
    Bit rate                    : 12.0 Mb/s
    Width                       : 1 920 pixels
    Height                      : 1 080 pixels
    Display aspect ratio        : 16:9
    Frame rate mode             : Constant
    Frame rate                  : 23.976 (23976/1000) FPS
    Color space                 : YUV
    Chroma subsampling          : 4:2:0
    Bit depth                   : 8 bits
    Scan type                   : Progressive
    Bits/(Pixel*Frame)          : 0.241
    Stream size                 : 3.06 GiB (99%)
    Writing library             : x264 core 148 r2665 a01e339
    Encoding settings           : cabac=1 / ref=5 / deblock=1:0:0 / analyse=0x3:0x113 / me=umh / subme=8 / psy=1 / psy_rd=1.00:0.00 / mixed_ref=1 / me_range=16 / chroma_me=1 / trellis=1 / 8x8dct=1 / cqm=0 / deadzone=21,11 / fast_pskip=1 / chroma_qp_offset=-2 / threads=18 / lookahead_threads=3 / sliced_threads=0 / nr=0 / decimate=1 / interlaced=0 / bluray_compat=0 / constrained_intra=0 / bframes=3 / b_pyramid=2 / b_adapt=2 / b_bias=0 / direct=3 / weightb=1 / open_gop=0 / weightp=2 / keyint=60 / keyint_min=6 / scenecut=40 / intra_refresh=0 / rc_lookahead=50 / rc=abr / mbtree=1 / bitrate=12000 / ratetol=1.0 / qcomp=0.60 / qpmin=0 / qpmax=69 / qpstep=4 / ip_ratio=1.40 / aq=1:1.00
    Language                    : English
    Tagged date                 : UTC 2017-08-09 00:57:56
    
    Audio
    ID                          : 2
    Format                      : AAC
    Format/Info                 : Advanced Audio Codec
    Format profile              : LC
    Codec ID                    : 40
    Duration                    : 36 min 36 s
    Duration_LastFrame          : 21 ms
    Bit rate mode               : Constant
    Bit rate                    : 129 kb/s
    Channel(s)                  : 2 channels
    Channel positions           : Front: L R
    Sampling rate               : 48.0 kHz
    Frame rate                  : 46.875 FPS (1024 spf)
    Compression mode            : Lossy
    Stream size                 : 33.7 MiB (1%)
    Language                    : English
    Default                     : Yes
    Alternate group             : 1
    Tagged date                 : UTC 2017-08-09 00:57:56
    
    Pass giải nén (Extract rar): B7XFKM
    Direct link:
    Mã:
    https://www.fshare.vn/file/NBDLM3BZQFPY
     
Đang tải...
Similar Threads Diễn đàn Date
Fshare: Blood Sisters - Digital PlayGround FULL 5 Scences 7.5GB Phim Sex Âu Mỹ - Western Porn - Direct Fast Link 19/5/17
Collections Movies DVD, HD 720p 1080p[Fshare&torent] Phim Sex Âu Mỹ - Western Porn - Direct Fast Link 11/10/14
[Torrent]Stoya.In.Love.And.Other.Mishaps[HD/2.48GB ] Phim Sex Âu Mỹ - Western Porn - Direct Fast Link 16/9/13
[Torrent]Riley.Steele.Roommate[HD/4.37GB] Phim Sex Âu Mỹ - Western Porn - Direct Fast Link 16/9/13
[Torrent]Digital Playground - Disconnected 2013[HD/3.27GB] Phim Sex Âu Mỹ - Western Porn - Direct Fast Link 12/9/13

Chia sẻ trang này