1. Hiện tại có nhiều bạn ko nhận được Email kích hoạt từ hệ thống, BQT đã rà soát và thấy đa số các trường hợp này dùng GMAIL. Trong thời gian chờ khắc phục, các bạn có thể tạm dùng các email khác để đăng ký và nhận email kích hoạt ( Yahoo, hotmail,....). Xin cảm ơn
    Dismiss Notice

Collections Movies DVD, HD 720p 1080p[Fshare]

Thảo luận trong 'Phim Sex Âu Mỹ - Western Porn - Direct Fast Link' bắt đầu bởi noelhao, 15/10/14.

  1. RuaConHamChoi

    RuaConHamChoi Dân Chơi Verified

    Bài viết:
    439
    Đã được thích:
    26
    Ah. Mà mình xin phép được góp ý bác Noelhao thế này nhé. Phần password mình biết là bắt buộc phải có. Nhưng sao bác Noelhao không dùng 1 password chung cho tất cả các file. Vì mình cắm máy down nhiều file 1 lúc bằng Fshare Tool. Down xong mới giải nén. Mà nhiều password quá dễ gây nhầm lẫn khi giải nén.
    Thanks bác Noelhao. Chúc bác nhiều sức khỏe.
     
    noelhao thích bài này.
  2. noelhao

    noelhao Ultra HD4K Thành viên BQT

    Bài viết:
    6,615
    Đã được thích:
    1,477
    Mình biết sẽ khó khăn cho ae khi giải nén với từng password riêng lẻ. Nhưng như đã biết, thói đời có kẻ kém tài, không được như người khác thì không phấn đấu vươn lên mà chỉ tìm cách hạ người khác bằng trò tiểu nhân để người ta không bằng mình. Mình không dùng password chung là hạn chế bị report, kẻ muốn phá mình cũng nản khi phải nhặt từng password để report.
    Thôi bạn chịu khó khi add từng link thì ghi chú pass lại cho đỡ nhầm!
     
    galaxy91 thích bài này.
  3. theblue1024

    theblue1024 Còn Bú Sữa Mẹ Verified

    Bài viết:
    12
    Đã được thích:
    3
  4. noelhao

    noelhao Ultra HD4K Thành viên BQT

    Bài viết:
    6,615
    Đã được thích:
    1,477
    Tor này khá lâu nay không còn người seed, để mình cắm máy thử xem.
     
  5. theblue1024

    theblue1024 Còn Bú Sữa Mẹ Verified

    Bài viết:
    12
    Đã được thích:
    3
    vâng, cảm ơn bác trc nha
     
  6. [GANON88]

    [GANON88] Dân Chơi Thứ Thiệt Verified

    Bài viết:
    496
    Đã được thích:
    29
    up lại 2 phim này dc ko anh
    Sweet Sinner - Forbidden Affairs #6 My Sister In Law 2016 1080p WEB-DL 6.6GB
    Sweet Sinner - Forbidden Affairs #7 My Son's Wife 2016 1080p WEB-DL 8.1GB
     
    noelhao thích bài này.
  7. choho

    choho Còn trinh Verified

    Bài viết:
    81
    Đã được thích:
    12
    phim Top Guns die r bác noel ơi. e chưa kịp down nữa mong bác reup sớm nha . bác có bản nào HD mà nhẹ hơn hay bản cũ cũng được nha bác thks bác nhiều
     
    noelhao thích bài này.
  8. noelhao

    noelhao Ultra HD4K Thành viên BQT

    Bài viết:
    6,615
    Đã được thích:
    1,477
    Naughty America - Kendall Kayden_Ryan Driller - My Dad's Hot Girlfriend 2015 1080p WEB-DL

    [​IMG]

    Screenshot:

    [​IMG]

    Mediainfo:
    Mã:
    Naughty America - Kendall Kayden , Ryan Driller - My Dad's Hot Girlfriend 2015 1080p WEB-DL.mp4
    Format                      : MPEG-4
    Format profile              : Base Media
    Codec ID                    : isom (isom/iso2/avc1/mp41)
    File size                   : 3.29 GiB
    Duration                    : 38 min 1 s
    Overall bit rate mode       : Variable
    Overall bit rate            : 12.4 Mb/s
    Writing application         : Lavf54.29.104
    
    Video
    ID                          : 1
    Format                      : AVC
    Format/Info                 : Advanced Video Codec
    Format profile              : [email protected]
    Format settings             : CABAC / 4 Ref Frames
    Format settings, CABAC      : Yes
    Format settings, ReFrames   : 4 frames
    Codec ID                    : avc1
    Codec ID/Info               : Advanced Video Coding
    Duration                    : 38 min 1 s
    Bit rate                    : 12.3 Mb/s
    Width                       : 1 920 pixels
    Height                      : 1 080 pixels
    Display aspect ratio        : 16:9
    Frame rate mode             : Constant
    Frame rate                  : 24.000 FPS
    Color space                 : YUV
    Chroma subsampling          : 4:2:0
    Bit depth                   : 8 bits
    Scan type                   : Progressive
    Bits/(Pixel*Frame)          : 0.247
    Stream size                 : 3.26 GiB (99%)
    Writing library             : x264 core 136
    Encoding settings           : cabac=1 / ref=4 / deblock=1:0:0 / analyse=0x3:0x113 / me=umh / subme=7 / psy=1 / psy_rd=0.00:0.00 / mixed_ref=1 / me_range=16 / chroma_me=1 / trellis=1 / 8x8dct=1 / cqm=0 / deadzone=21,11 / fast_pskip=0 / chroma_qp_offset=0 / threads=48 / lookahead_threads=8 / sliced_threads=0 / nr=0 / decimate=1 / interlaced=0 / bluray_compat=0 / constrained_intra=0 / bframes=16 / b_pyramid=2 / b_adapt=1 / b_bias=0 / direct=1 / weightb=1 / open_gop=0 / weightp=2 / keyint=300 / keyint_min=25 / scenecut=40 / intra_refresh=0 / rc_lookahead=40 / rc=2pass / mbtree=1 / bitrate=12288 / ratetol=1.0 / qcomp=0.50 / qpmin=8 / qpmax=51 / qpstep=4 / cplxblur=20.0 / qblur=0.5 / ip_ratio=1.41 / aq=1:1.00
    Language                    : English
    
    Audio
    ID                          : 2
    Format                      : AAC
    Format/Info                 : Advanced Audio Codec
    Format profile              : LC
    Codec ID                    : mp4a-40-2
    Duration                    : 38 min 1 s
    Bit rate mode               : Variable
    Bit rate                    : 109 kb/s
    Maximum bit rate            : 160 kb/s
    Channel(s)                  : 2 channels
    Channel positions           : Front: L R
    Sampling rate               : 48.0 kHz
    Frame rate                  : 46.875 FPS (1024 SPF)
    Compression mode            : Lossy
    Stream size                 : 29.7 MiB (1%)
    Language                    : English
    Default                     : Yes
    Alternate group             : 1
    
    Pass giải nén (Extract rar): 6ETO
    Direct link:
    Mã:
    http://images2.imagebam.com/b5/6f/3c/4533e4659233113.png
     
  9. noelhao

    noelhao Ultra HD4K Thành viên BQT

    Bài viết:
    6,615
    Đã được thích:
    1,477
  10. noelhao

    noelhao Ultra HD4K Thành viên BQT

    Bài viết:
    6,615
    Đã được thích:
    1,477
Đang tải...
Similar Threads Diễn đàn Date
Fshare: Blood Sisters - Digital PlayGround FULL 5 Scences 7.5GB Phim Sex Âu Mỹ - Western Porn - Direct Fast Link 19/5/17
Collections Movies DVD, HD 720p 1080p[Fshare&torent] Phim Sex Âu Mỹ - Western Porn - Direct Fast Link 11/10/14
[Torrent]Stoya.In.Love.And.Other.Mishaps[HD/2.48GB ] Phim Sex Âu Mỹ - Western Porn - Direct Fast Link 16/9/13
[Torrent]Riley.Steele.Roommate[HD/4.37GB] Phim Sex Âu Mỹ - Western Porn - Direct Fast Link 16/9/13
[Torrent]Digital Playground - Disconnected 2013[HD/3.27GB] Phim Sex Âu Mỹ - Western Porn - Direct Fast Link 12/9/13

Chia sẻ trang này