1. Hiện tại có nhiều bạn ko nhận được Email kích hoạt từ hệ thống, BQT đã rà soát và thấy đa số các trường hợp này dùng GMAIL. Trong thời gian chờ khắc phục, các bạn có thể tạm dùng các email khác để đăng ký và nhận email kích hoạt ( Yahoo, hotmail,....). Xin cảm ơn
  2. BQT LauXanh xin giới thiệu đến bạn Khách 2 Box Kiều Nữ và Đại Gia tại khu vực Hà NộiTP HCM. Nơi bạn có thể tìm hiểu, trao đổi, review thông tin các kiều nữ chân dài, người mẫu, ca sĩ nghiệp dư đi khách giá cao. Phục vụ các dân chơi đẳng cấp, doanh nhân, việt kiều, đại gia, thiếu gia công tử...

Collections Movies DVD, HD 720p 1080p[Fshare]

Thảo luận trong 'Phim Sex Âu Mỹ - Western Porn - Direct Fast Link' bắt đầu bởi noelhao, 15/10/14.

  1. BacKieuPhong

    BacKieuPhong Còn Bú Sữa Mẹ
    1/87

    Bài viết:
    7
    Đã được thích:
    1
    Điểm thành tích:
    1
     
  2. BacKieuPhong

    BacKieuPhong Còn Bú Sữa Mẹ
    1/87

    Bài viết:
    7
    Đã được thích:
    1
    Điểm thành tích:
    1
    @BacKieuPhong : Viết bài tiếng Việt phải có dấu nhé!
     
    Last edited by a moderator: 30/11/17
  3. theblue1024

    theblue1024 Còn Bú Sữa Mẹ Verified
    31/87

    Bài viết:
    20
    Đã được thích:
    4
    Điểm thành tích:
    31
    noelhao thích bài này.
  4. Duy Nguyen 987

    Duy Nguyen 987 Dậy Thì Verified
    2/87

    Bài viết:
    59
    Đã được thích:
    27
    Điểm thành tích:
    2
    bạn ơi bạn up phim chưa bạn.bạn up nốt giúp mình phim SKYHD-157 Sky Angel Blue Vol.149 (Blu-ray) Haruka Aizawa bạn nhé.mình xin bản phim này cũng được 1 tháng rồi.có j bạn tranh thủ up giúp mình.cảm ơn bạn nhiều.
    mà bạn còn mấy phim của Reiko kobayakawa (Blu-ray) ko bạn.
     
    noelhao thích bài này.
  5. EinUchiha

    EinUchiha Còn Bú Sữa Mẹ Verified
    31/87

    Bài viết:
    11
    Đã được thích:
    8
    Điểm thành tích:
    31
    kéo lên để hôm nào bác rảnh up giúp em :D
    xin phép bổ sung thêm
    Xena Warrior Princess XXX An Exquisite Films Parody
    Private Gold 11-13: The Pyramid 1-3
    Private Black Label 6-8: The Uranus Experiment 1-3
    Tks bác phát nữa :D
     
    noelhao thích bài này.
  6. noelhao

    noelhao Ultra HD4K Thành viên BQT
    687/695

    Bài viết:
    6,654
    Đã được thích:
    1,524
    Điểm thành tích:
    687
    Caribbeancom 032112-973 - Married Fall Special Edition 2012 - Tomoka Sakurai 720p WEB-DL

    [​IMG]

    Screenshot:

    [​IMG]

    Mediainfo:
    Mã:
    Caribbeancom 032112-973 - Married Fall Special Edition 2012 - Tomoka Sakurai 720p WEB-DL.wmv
    Format                      : Windows Media
    File size                   : 1.92 GiB
    Duration                    : 1 h 5 min
    Overall bit rate mode       : Variable
    Overall bit rate            : 4 200 kb/s
    Maximum Overall bit rate    : 7 219 kb/s
    Encoded date                : UTC 2011-12-16 06:54:54.796
    
    Video
    ID                          : 2
    Format                      : VC-1
    Format profile              : [email protected]
    Codec ID                    : WMV3
    Codec ID/Info               : Windows Media Video 9
    Codec ID/Hint               : WMV3
    Description of the codec    : Windows Media Video 9 - Professional
    Duration                    : 1 h 5 min
    Bit rate mode               : Variable
    Bit rate                    : 4 000 kb/s
    Width                       : 1 280 pixels
    Height                      : 720 pixels
    Display aspect ratio        : 16:9
    Frame rate                  : 29.970 (29970/1000) FPS
    Color space                 : YUV
    Chroma subsampling          : 4:2:0
    Bit depth                   : 8 bits
    Scan type                   : Progressive
    Compression mode            : Lossy
    Bits/(Pixel*Frame)          : 0.145
    Stream size                 : 1.83 GiB (95%)
    NumberOfFrames              : 117452
    
    Audio
    ID                          : 1
    Format                      : WMA
    Format version              : Version 2
    Codec ID                    : 161
    Codec ID/Info               : Windows Media Audio
    Description of the codec    : Windows Media Audio 9.2 - 192 kbps, 48 kHz, stereo 2-pass VBR
    Duration                    : 1 h 5 min
    Bit rate mode               : Variable
    Bit rate                    : 183 kb/s
    Channel(s)                  : 2 channels
    Sampling rate               : 48.0 kHz
    Bit depth                   : 16 bits
    Stream size                 : 85.6 MiB (4%)
    
    Pass giải nén (Extract rar): Y0XJ
    Direct link:
    Mã:
    http://images2.imagebam.com/0a/20/73/565be3683169863.png
     
  7. noelhao

    noelhao Ultra HD4K Thành viên BQT
    687/695

    Bài viết:
    6,654
    Đã được thích:
    1,524
    Điểm thành tích:
    687
    Digital Playground - My Wife's Hot Sister 2017 1080p WED-DL 7.6GB

    [​IMG]

    Screenshot:


    [​IMG]

    Mediainfo:
    Mã:
    Digital Playground - My Wife's Hot Sister 2017 1080p WED-DL\my_wifes_hot_sisterepisode1_1080p.mp4
    Format                      : MPEG-4
    Format profile              : Base Media
    Codec ID                    : isom (isom/iso2/avc1/mp41)
    File size                   : 1.38 GiB
    Duration                    : 31 min 51 s
    Overall bit rate            : 6 198 kb/s
    Movie name                  : RARBG - DigitalPlayground.17.07.01.Chanel.Preston.My.Wifes.Hot.Sister.Episode.1.XXX.1080p.MP4-KTR
    Writing application         : Lavf57.56.100
    Comment                     : RARBG - DigitalPlayground.17.07.01.Chanel.Preston.My.Wifes.Hot.Sister.Episode.1.XXX.1080p.MP4-KTR
    
    Video
    ID                          : 1
    Format                      : AVC
    Format/Info                 : Advanced Video Codec
    Format profile              : [email protected]
    Format settings             : CABAC / 4 Ref Frames
    Format settings, CABAC      : Yes
    Format settings, ReFrames   : 4 frames
    Codec ID                    : avc1
    Codec ID/Info               : Advanced Video Coding
    Duration                    : 31 min 51 s
    Bit rate                    : 6 000 kb/s
    Width                       : 1 920 pixels
    Height                      : 1 080 pixels
    Display aspect ratio        : 16:9
    Frame rate mode             : Constant
    Frame rate                  : 23.976 (24000/1001) FPS
    Color space                 : YUV
    Chroma subsampling          : 4:2:0
    Bit depth                   : 8 bits
    Scan type                   : Progressive
    Bits/(Pixel*Frame)          : 0.121
    Stream size                 : 1.34 GiB (97%)
    Writing library             : x264 core 148 r2665 a01e339
    Encoding settings           : cabac=1 / ref=4 / deblock=1:0:0 / analyse=0x3:0x113 / me=umh / subme=8 / psy=1 / psy_rd=1.00:0.00 / mixed_ref=1 / me_range=16 / chroma_me=1 / trellis=1 / 8x8dct=1 / cqm=0 / deadzone=21,11 / fast_pskip=1 / chroma_qp_offset=-2 / threads=20 / lookahead_threads=3 / sliced_threads=0 / nr=0 / decimate=1 / interlaced=0 / bluray_compat=0 / constrained_intra=0 / bframes=3 / b_pyramid=2 / b_adapt=2 / b_bias=0 / direct=3 / weightb=1 / open_gop=0 / weightp=2 / keyint=60 / keyint_min=6 / scenecut=40 / intra_refresh=0 / rc_lookahead=50 / rc=abr / mbtree=1 / bitrate=6000 / ratetol=1.0 / qcomp=0.60 / qpmin=0 / qpmax=69 / qpstep=4 / ip_ratio=1.40 / aq=1:1.00
    
    Audio
    ID                          : 2
    Format                      : AAC
    Format/Info                 : Advanced Audio Codec
    Format profile              : LC
    Codec ID                    : mp4a-40-2
    Duration                    : 31 min 51 s
    Duration_LastFrame          : -16 ms
    Bit rate mode               : Constant
    Bit rate                    : 192 kb/s
    Channel(s)                  : 2 channels
    Channel positions           : Front: L R
    Sampling rate               : 48.0 kHz
    Frame rate                  : 46.875 FPS (1024 SPF)
    Compression mode            : Lossy
    Stream size                 : 43.9 MiB (3%)
    Default                     : Yes
    Alternate group             : 1
    
    Pass giải nén (Extract rar): WN3T
    Direct link:
    Mã:
    http://images2.imagebam.com/2a/e4/38/809a32683169903.png
     
    RuaConHamChoi thích bài này.
  8. Duy Nguyen 987

    Duy Nguyen 987 Dậy Thì Verified
    2/87

    Bài viết:
    59
    Đã được thích:
    27
    Điểm thành tích:
    2
    Dạo này chắc bạn bận quá nên up ít phim ah.bạn nhớ up giúp mình phim SKYHD-157 Sky Angel Blue Vol 149 (Blu-ray) Haruka Aizawa bạn nhé.minh xin bạn cũng được hơn thang rồi.mà minh thấy nhiều ae hỏi bạn phim này lắm.trước bạn up còn thiếu mỗi phim này nữa thôi.nên bạn giúp các ae phim này nhé.cám ơn bạn.
     
    noelhao thích bài này.
  9. Duy Nguyen 987

    Duy Nguyen 987 Dậy Thì Verified
    2/87

    Bài viết:
    59
    Đã được thích:
    27
    Điểm thành tích:
    2
    bạn còn phim Tokyo hot n0706 bản 1080p 3.1 gb của Tomoka Sakurai ko bạn.phim này hay quá mà lâu rồi nên mình ko tải được.bạn có thì up giúp mình bạn nhé.cảm ơn bạn nhiều.
    mà bạn nhớ up giúp mình nốt phim SKYHD-157 Sky Angel Blue Vol.149 (Blu-rây) Haruka Aizawa bạn nhé.mình xin bạn cũng được hơn 1 tháng rồi.nhưng chắc dạo này bạn bận nên chưa up cho mình.bạn giúp mình.mình hết sạch phim để xem rồi..
     
    noelhao thích bài này.
  10. boxuanhp88

    boxuanhp88 Còn Bú Sữa Mẹ Verified
    31/87

    Bài viết:
    15
    Đã được thích:
    2
    Điểm thành tích:
    31
    hay lắm thanks
     
  11. Duy Nguyen 987

    Duy Nguyen 987 Dậy Thì Verified
    2/87

    Bài viết:
    59
    Đã được thích:
    27
    Điểm thành tích:
    2
    bạn ơi bạn vẫn đang bận à.mình xin bạn phim cũng được gần 2 tháng rồi.hỏi bạn nhiều cũng ngại.bạn bận vậy thì Không Cần Up SKYHD-157 Sky Angel Blue Vol.149 (Blu-ray) Haruka Aizawa nữa đâu.
    Bạn úp giúp mình phim Tokyo Hot n0706 1080p 3.1 GB Tomoka Sakurai.Phim Tokyo Hot n1104 1080p 4.75 GB Miho Uehara.Phim Tokyo Hot n1114 1080p 5.23 GB Miho Uehara bạn nhé.cảm ơn bạn nhiều.
    bạn có tokyo hot n1104 và tokyo hot n1114 của Miho Uehara ko bạn.giúp mình bạn nhé
     
    noelhao thích bài này.
  12. Duy Nguyen 987

    Duy Nguyen 987 Dậy Thì Verified
    2/87

    Bài viết:
    59
    Đã được thích:
    27
    Điểm thành tích:
    2
    bạn có 3 phim Tokyo trên ko bạn.bạn giúp mình nhé.phim cũ lâu rồi nên mãi mình ko tải được bạn à.bạn cố gắng giúp mình nhé.cảm ơn bạn nhiều.vừa nãy mình tưởng fshare với 4share có mấy phim Tokyo Hot này nên mua Thẻ Điện Thoại để nạp.xem lại thì mấy nick phím này Dead hết rồi.bực thế.phí mất cái thẻ điện thoại.
    Hay jo bạn Upload luôn 3 phím Tokyo Hot trên giúp mình được không.rồi mình nhắn tin Thẻ Điện Thoại cho bạn.để bạn Tải phim Khác.cố gắng giúp mình.hôm nay mình được nghỉ.mai phải đi làm rồi
     
  13. minhduc110788

    minhduc110788 Còn Bú Sữa Mẹ Verified
    31/87

    Bài viết:
    28
    Đã được thích:
    7
    Điểm thành tích:
    31
    cho mình xin phim Let It Ride của hãng Digital Playground với bác nhé
     
    noelhao thích bài này.
  14. Minh Hoàng 6968

    Minh Hoàng 6968 Còn Bú Sữa Mẹ
    1/87

    Bài viết:
    4
    Đã được thích:
    1
    Điểm thành tích:
    1
    Bác tìm giúp em bộ Russian Institute Lesson 10 với
     
    noelhao thích bài này.
  15. theblue1024

    theblue1024 Còn Bú Sữa Mẹ Verified
    31/87

    Bài viết:
    20
    Đã được thích:
    4
    Điểm thành tích:
    31
  16. Tiger tank

    Tiger tank Mất Trinh Verified
    337/348

    Bài viết:
    161
    Đã được thích:
    2
    Điểm thành tích:
    337
  17. acb12354

    acb12354 Còn Bú Sữa Mẹ Verified
    30/87

    Bài viết:
    21
    Đã được thích:
    0
    Điểm thành tích:
    30
    bác còn sky 107 ryu enami không vậy up cho em tải với. tks bác trước :))
     
  18. choho

    choho Còn trinh Verified
    2/87

    Bài viết:
    88
    Đã được thích:
    12
    Điểm thành tích:
    2
    bình tĩnh các bác ơi. bác Noelhao sau vụ bị rp chắc đang bận lắm. mấy bác cứ hối là bác ấy stress drop topic luôn thì hết chỗ xin phim =))
     
  19. trungdn979

    trungdn979 Dậy Thì Verified
    32/87

    Bài viết:
    63
    Đã được thích:
    6
    Điểm thành tích:
    32
    Bác Noelhao ơi, mong bác lấy giùm e phim này ạ :D phim hay quá mà e đến muộn nên các link trên diễn đàn die hết r :(. Mong bác lấy giùm e.
    Mã:
    http://www.aventertainments.com/product_lists.aspx?product_id=97483&languageID=1&dept_id=29
     
  20. noelhao

    noelhao Ultra HD4K Thành viên BQT
    687/695

    Bài viết:
    6,654
    Đã được thích:
    1,524
    Điểm thành tích:
    687
    Sẽ upload lại.
     
    RuaConHamChoi thích bài này.
Đang tải...
Similar Threads Diễn đàn Date
Fshare: Blood Sisters - Digital PlayGround FULL 5 Scences 7.5GB Phim Sex Âu Mỹ - Western Porn - Direct Fast Link 19/5/17
Collections Movies DVD, HD 720p 1080p[Fshare&torent] Phim Sex Âu Mỹ - Western Porn - Direct Fast Link 11/10/14
[Torrent]Stoya.In.Love.And.Other.Mishaps[HD/2.48GB ] Phim Sex Âu Mỹ - Western Porn - Direct Fast Link 16/9/13
[Torrent]Riley.Steele.Roommate[HD/4.37GB] Phim Sex Âu Mỹ - Western Porn - Direct Fast Link 16/9/13
[Torrent]Digital Playground - Disconnected 2013[HD/3.27GB] Phim Sex Âu Mỹ - Western Porn - Direct Fast Link 12/9/13

Chia sẻ trang này