1. Hiện tại có nhiều bạn ko nhận được Email kích hoạt từ hệ thống, BQT đã rà soát và thấy đa số các trường hợp này dùng GMAIL. Trong thời gian chờ khắc phục, các bạn có thể tạm dùng các email khác để đăng ký và nhận email kích hoạt ( Yahoo, hotmail,....). Xin cảm ơn
    Dismiss Notice

Collections Movies DVD, HD 720p 1080p[Fshare]

Thảo luận trong 'Phim Sex Âu Mỹ - Western Porn - Direct Fast Link' bắt đầu bởi noelhao, 15/10/14.

  1. noelhao

    noelhao Ultra HD4K Thành viên BQT

    Bài viết:
    6,240
    Đã được thích:
    1,063
    BRAZZERS - 98 - They Always Come Back - Dani Daniels_Bill Bailey 2013 1080p WEB-DL

    [​IMG]

    Screenshot:


    [​IMG]

    Mediainfo:
    Mã:
    98 - They Always Come Back - Dani Daniels_Bill Bailey 2013.mp4
    Format                      : MPEG-4
    Format profile              : Base Media
    Codec ID                    : isom (isom/iso2/avc1/mp41)
    File size                   : 3.23 GiB
    Duration                    : 36 min
    Overall bit rate            : 12.6 Mb/s
    Writing application         : Lavf54.37.100
    
    Video
    ID                          : 1
    Format                      : AVC
    Format/Info                 : Advanced Video Codec
    Format profile              : [email protected]
    Format settings, CABAC      : Yes
    Format settings, ReFrames   : 5 frames
    Codec ID                    : avc1
    Codec ID/Info               : Advanced Video Coding
    Duration                    : 36 min
    Bit rate                    : 12.0 Mb/s
    Width                       : 1 920 pixels
    Height                      : 1 080 pixels
    Display aspect ratio        : 16:9
    Frame rate mode             : Constant
    Frame rate                  : 29.970 (29970/1000) FPS
    Color space                 : YUV
    Chroma subsampling          : 4:2:0
    Bit depth                   : 8 bits
    Scan type                   : Progressive
    Bits/(Pixel*Frame)          : 0.193
    Stream size                 : 3.06 GiB (95%)
    Writing library             : x264 core 128 r2216 198a7ea
    Encoding settings           : cabac=1 / ref=5 / deblock=1:0:0 / analyse=0x3:0x113 / me=umh / subme=8 / psy=1 / psy_rd=1.00:0.00 / mixed_ref=1 / me_range=16 / chroma_me=1 / trellis=1 / 8x8dct=1 / cqm=0 / deadzone=21,11 / fast_pskip=1 / chroma_qp_offset=-2 / threads=12 / lookahead_threads=2 / sliced_threads=0 / nr=0 / decimate=1 / interlaced=0 / bluray_compat=0 / constrained_intra=0 / bframes=3 / b_pyramid=2 / b_adapt=2 / b_bias=0 / direct=3 / weightb=1 / open_gop=0 / weightp=2 / keyint=60 / keyint_min=6 / scenecut=40 / intra_refresh=0 / rc_lookahead=50 / rc=abr / mbtree=1 / bitrate=12000 / ratetol=1.0 / qcomp=0.60 / qpmin=0 / qpmax=69 / qpstep=4 / ip_ratio=1.40 / aq=1:1.00
    Tagged date                 : UTC 2012-12-29 05:13:19
    
    Audio
    ID                          : 2
    Format                      : AAC
    Format/Info                 : Advanced Audio Codec
    Format profile              : LC
    Codec ID                    : 40
    Duration                    : 36 min
    Duration_LastFrame          : 33 ms
    Bit rate mode               : Constant
    Bit rate                    : 128 kb/s
    Channel(s)                  : 2 channels
    Channel positions           : Front: L R
    Sampling rate               : 48.0 kHz
    Frame rate                  : 46.875 FPS (1024 spf)
    Compression mode            : Lossy
    Stream size                 : 33.5 MiB (1%)
    Default                     : Yes
    Alternate group             : 1
    Tagged date                 : UTC 2012-12-29 05:13:19
    
    Other #1
    ID                          : 65536
    Type                        : Hint
    Format                      : RTP
    Codec ID                    : rtp 
    Duration                    : 36 min
    Encoded date                : UTC 2012-12-29 05:13:04
    Tagged date                 : UTC 2012-12-29 05:13:19
    
    Other #2
    ID                          : 65537
    Type                        : Hint
    Format                      : RTP
    Codec ID                    : rtp 
    Duration                    : 36 min
    Encoded date                : UTC 2012-12-29 05:13:17
    Tagged date                 : UTC 2012-12-29 05:13:19
    Bit rate mode               : VBR
    
    Direct link:
    Mã:
    https://www.fshare.vn/file/D1TS68DUXVBL
     
    Santa77 thích bài này.
  2. noelhao

    noelhao Ultra HD4K Thành viên BQT

    Bài viết:
    6,240
    Đã được thích:
    1,063
    BRAZZERS - 99 - Driven by Double G's - Dani Daniels_Johnny Sins 2013 1080p WEB-DL

    [​IMG]

    Screenshot:


    [​IMG]

    Mediainfo:
    Mã:
    99 - Driven by Double G's - Dani Daniels_Johnny Sins 2013.mp4
    Format                      : MPEG-4
    Format profile              : Base Media
    Codec ID                    : isom (isom/iso2/avc1/mp41)
    File size                   : 3.89 GiB
    Duration                    : 44 min
    Overall bit rate            : 12.6 Mb/s
    Writing application         : Lavf54.37.100
    
    Video
    ID                          : 1
    Format                      : AVC
    Format/Info                 : Advanced Video Codec
    Format profile              : [email protected]
    Format settings, CABAC      : Yes
    Format settings, ReFrames   : 5 frames
    Codec ID                    : avc1
    Codec ID/Info               : Advanced Video Coding
    Duration                    : 44 min
    Bit rate                    : 12.0 Mb/s
    Width                       : 1 920 pixels
    Height                      : 1 080 pixels
    Display aspect ratio        : 16:9
    Frame rate mode             : Constant
    Frame rate                  : 29.970 (29970/1000) FPS
    Color space                 : YUV
    Chroma subsampling          : 4:2:0
    Bit depth                   : 8 bits
    Scan type                   : Progressive
    Bits/(Pixel*Frame)          : 0.193
    Stream size                 : 3.69 GiB (95%)
    Writing library             : x264 core 128 r2216 198a7ea
    Encoding settings           : cabac=1 / ref=5 / deblock=1:0:0 / analyse=0x3:0x113 / me=umh / subme=8 / psy=1 / psy_rd=1.00:0.00 / mixed_ref=1 / me_range=16 / chroma_me=1 / trellis=1 / 8x8dct=1 / cqm=0 / deadzone=21,11 / fast_pskip=1 / chroma_qp_offset=-2 / threads=36 / lookahead_threads=6 / sliced_threads=0 / nr=0 / decimate=1 / interlaced=0 / bluray_compat=0 / constrained_intra=0 / bframes=3 / b_pyramid=2 / b_adapt=2 / b_bias=0 / direct=3 / weightb=1 / open_gop=0 / weightp=2 / keyint=60 / keyint_min=6 / scenecut=40 / intra_refresh=0 / rc_lookahead=50 / rc=abr / mbtree=1 / bitrate=12000 / ratetol=1.0 / qcomp=0.60 / qpmin=0 / qpmax=69 / qpstep=4 / ip_ratio=1.40 / aq=1:1.00
    Tagged date                 : UTC 2013-01-30 15:28:35
    
    Audio
    ID                          : 2
    Format                      : AAC
    Format/Info                 : Advanced Audio Codec
    Format profile              : LC
    Codec ID                    : 40
    Duration                    : 44 min
    Duration_LastFrame          : 33 ms
    Bit rate mode               : Constant
    Bit rate                    : 128 kb/s
    Channel(s)                  : 2 channels
    Channel positions           : Front: L R
    Sampling rate               : 48.0 kHz
    Frame rate                  : 46.875 FPS (1024 spf)
    Compression mode            : Lossy
    Stream size                 : 40.4 MiB (1%)
    Default                     : Yes
    Alternate group             : 1
    Tagged date                 : UTC 2013-01-30 15:28:35
    
    Other #1
    ID                          : 65536
    Type                        : Hint
    Format                      : RTP
    Codec ID                    : rtp 
    Duration                    : 44 min
    Encoded date                : UTC 2013-01-30 15:27:04
    Tagged date                 : UTC 2013-01-30 15:28:35
    
    Other #2
    ID                          : 65537
    Type                        : Hint
    Format                      : RTP
    Codec ID                    : rtp 
    Duration                    : 44 min
    Encoded date                : UTC 2013-01-30 15:28:11
    Tagged date                 : UTC 2013-01-30 15:28:35
    Bit rate mode               : VBR
    
    Direct link:
    Mã:
    https://www.fshare.vn/file/31NV6XZSPZH7
     
    Santa77 thích bài này.
  3. noelhao

    noelhao Ultra HD4K Thành viên BQT

    Bài viết:
    6,240
    Đã được thích:
    1,063
    BRAZZERS - 100 - Fuck the Law - Dani Daniels_Bill Bailey_Johnny Sins 2013 1080p WEB-DL

    [​IMG]

    Screenshot:


    [​IMG]

    Mediainfo:
    Mã:
    100 - Fuck the Law - Dani Daniels_Bill Bailey_Johnny Sins 2013.mp4
    Format                      : MPEG-4
    Format profile              : Base Media
    Codec ID                    : isom (isom/iso2/avc1/mp41)
    File size                   : 3.11 GiB
    Duration                    : 35 min
    Overall bit rate            : 12.7 Mb/s
    Writing application         : Lavf55.3.100
    
    Video
    ID                          : 1
    Format                      : AVC
    Format/Info                 : Advanced Video Codec
    Format profile              : [email protected]
    Format settings, CABAC      : Yes
    Format settings, ReFrames   : 5 frames
    Codec ID                    : avc1
    Codec ID/Info               : Advanced Video Coding
    Duration                    : 35 min
    Bit rate                    : 12.0 Mb/s
    Width                       : 1 920 pixels
    Height                      : 1 080 pixels
    Display aspect ratio        : 16:9
    Frame rate mode             : Constant
    Frame rate                  : 23.976 (23976/1000) FPS
    Color space                 : YUV
    Chroma subsampling          : 4:2:0
    Bit depth                   : 8 bits
    Scan type                   : Progressive
    Bits/(Pixel*Frame)          : 0.241
    Stream size                 : 2.95 GiB (95%)
    Writing library             : x264 core 128 r2216 198a7ea
    Encoding settings           : cabac=1 / ref=5 / deblock=1:0:0 / analyse=0x3:0x113 / me=umh / subme=8 / psy=1 / psy_rd=1.00:0.00 / mixed_ref=1 / me_range=16 / chroma_me=1 / trellis=1 / 8x8dct=1 / cqm=0 / deadzone=21,11 / fast_pskip=1 / chroma_qp_offset=-2 / threads=36 / lookahead_threads=6 / sliced_threads=0 / nr=0 / decimate=1 / interlaced=0 / bluray_compat=0 / constrained_intra=0 / bframes=3 / b_pyramid=2 / b_adapt=2 / b_bias=0 / direct=3 / weightb=1 / open_gop=0 / weightp=2 / keyint=60 / keyint_min=6 / scenecut=40 / intra_refresh=0 / rc_lookahead=50 / rc=abr / mbtree=1 / bitrate=12000 / ratetol=1.0 / qcomp=0.60 / qpmin=0 / qpmax=69 / qpstep=4 / ip_ratio=1.40 / aq=1:1.00
    Tagged date                 : UTC 2013-11-24 15:48:50
    
    Audio
    ID                          : 2
    Format                      : AAC
    Format/Info                 : Advanced Audio Codec
    Format profile              : LC
    Codec ID                    : 40
    Duration                    : 35 min
    Duration_LastFrame          : -21 ms
    Bit rate mode               : Constant
    Bit rate                    : 128 kb/s
    Channel(s)                  : 2 channels
    Channel positions           : Front: L R
    Sampling rate               : 48.0 kHz
    Frame rate                  : 46.875 FPS (1024 spf)
    Compression mode            : Lossy
    Stream size                 : 32.1 MiB (1%)
    Default                     : Yes
    Alternate group             : 1
    Tagged date                 : UTC 2013-11-24 15:48:50
    
    Other #1
    ID                          : 65536
    Type                        : Hint
    Format                      : RTP
    Codec ID                    : rtp 
    Duration                    : 35 min
    Encoded date                : UTC 2013-11-24 15:44:37
    Tagged date                 : UTC 2013-11-24 15:48:50
    
    Other #2
    ID                          : 65537
    Type                        : Hint
    Format                      : RTP
    Codec ID                    : rtp 
    Duration                    : 35 min
    Encoded date                : UTC 2013-11-24 15:48:33
    Tagged date                 : UTC 2013-11-24 15:48:50
    Bit rate mode               : VBR
    
    Direct link:
    Mã:
    https://www.fshare.vn/file/6HNJGEC9YSSC
     
    Santa77 thích bài này.
  4. noelhao

    noelhao Ultra HD4K Thành viên BQT

    Bài viết:
    6,240
    Đã được thích:
    1,063
    BRAZZERS - 101 - Naughty Nurse Horny Housewife - Cherie Deville_Dani Daniels_James Deen 2013 1080p WEB-DL

    [​IMG]

    Screenshot:


    [​IMG]

    Mediainfo:
    Mã:
    101 - Naughty Nurse Horny Housewife - Cherie Deville_Dani Daniels_James Deen 2013.mp4
    Format                      : MPEG-4
    Format profile              : Base Media
    Codec ID                    : isom (isom/iso2/avc1/mp41)
    File size                   : 2.81 GiB
    Duration                    : 31 min
    Overall bit rate            : 12.7 Mb/s
    Writing application         : Lavf55.1.100
    
    Video
    ID                          : 1
    Format                      : AVC
    Format/Info                 : Advanced Video Codec
    Format profile              : [email protected]
    Format settings, CABAC      : Yes
    Format settings, ReFrames   : 5 frames
    Codec ID                    : avc1
    Codec ID/Info               : Advanced Video Coding
    Duration                    : 31 min
    Bit rate                    : 12.0 Mb/s
    Width                       : 1 920 pixels
    Height                      : 1 080 pixels
    Display aspect ratio        : 16:9
    Frame rate mode             : Constant
    Frame rate                  : 29.970 (29970/1000) FPS
    Color space                 : YUV
    Chroma subsampling          : 4:2:0
    Bit depth                   : 8 bits
    Scan type                   : Progressive
    Bits/(Pixel*Frame)          : 0.193
    Stream size                 : 2.67 GiB (95%)
    Writing library             : x264 core 130 r2274 c832fe9
    Encoding settings           : cabac=1 / ref=5 / deblock=1:0:0 / analyse=0x3:0x113 / me=umh / subme=8 / psy=1 / psy_rd=1.00:0.00 / mixed_ref=1 / me_range=16 / chroma_me=1 / trellis=1 / 8x8dct=1 / cqm=0 / deadzone=21,11 / fast_pskip=1 / chroma_qp_offset=-2 / threads=36 / lookahead_threads=6 / sliced_threads=0 / nr=0 / decimate=1 / interlaced=0 / bluray_compat=0 / constrained_intra=0 / bframes=3 / b_pyramid=2 / b_adapt=2 / b_bias=0 / direct=3 / weightb=1 / open_gop=0 / weightp=2 / keyint=60 / keyint_min=6 / scenecut=40 / intra_refresh=0 / rc_lookahead=50 / rc=abr / mbtree=1 / bitrate=12000 / ratetol=1.0 / qcomp=0.60 / qpmin=0 / qpmax=69 / qpstep=4 / ip_ratio=1.40 / aq=1:1.00
    Tagged date                 : UTC 2013-12-03 04:48:47
    
    Audio
    ID                          : 2
    Format                      : AAC
    Format/Info                 : Advanced Audio Codec
    Format profile              : LC
    Codec ID                    : 40
    Duration                    : 31 min
    Duration_LastFrame          : 33 ms
    Bit rate mode               : Constant
    Bit rate                    : 128 kb/s
    Channel(s)                  : 2 channels
    Channel positions           : Front: L R
    Sampling rate               : 48.0 kHz
    Frame rate                  : 46.875 FPS (1024 spf)
    Compression mode            : Lossy
    Stream size                 : 28.9 MiB (1%)
    Default                     : Yes
    Alternate group             : 1
    Tagged date                 : UTC 2013-12-03 04:48:47
    
    Other #1
    ID                          : 65536
    Type                        : Hint
    Format                      : RTP
    Codec ID                    : rtp
    Duration                    : 31 min
    Encoded date                : UTC 2013-12-03 04:48:38
    Tagged date                 : UTC 2013-12-03 04:48:47
    
    Other #2
    ID                          : 65537
    Type                        : Hint
    Format                      : RTP
    Codec ID                    : rtp
    Duration                    : 31 min
    Encoded date                : UTC 2013-12-03 04:48:46
    Tagged date                 : UTC 2013-12-03 04:48:47
    Bit rate mode               : VBR
    
    Pass giải nén (Extract rar): 52515759
    Direct link:
    Mã:
    https://www.fshare.vn/file/KRSEEGVPQ7IP
     
    Santa77 thích bài này.
  5. noelhao

    noelhao Ultra HD4K Thành viên BQT

    Bài viết:
    6,240
    Đã được thích:
    1,063
    BRAZZERS - 102 - Full Service Room Service 2014 - Kagney Linn Karter_Keiran Lee 1080p WEB-DL

    [​IMG]

    Screenshot:


    [​IMG]

    Mediainfo:
    Mã:
    102 - Full Service Room Service 2014 - Kagney Linn Karter_Keiran Lee.mp4
    Format                      : MPEG-4
    Format profile              : Base Media
    Codec ID                    : isom (isom/iso2/avc1/mp41)
    File size                   : 2.44 GiB
    Duration                    : 27 min
    Overall bit rate            : 12.5 Mb/s
    Writing application         : Lavf54.37.100
    
    Video
    ID                          : 1
    Format                      : AVC
    Format/Info                 : Advanced Video Codec
    Format profile              : [email protected]
    Format settings, CABAC      : Yes
    Format settings, ReFrames   : 5 frames
    Codec ID                    : avc1
    Codec ID/Info               : Advanced Video Coding
    Duration                    : 27 min
    Bit rate                    : 12.0 Mb/s
    Width                       : 1 920 pixels
    Height                      : 1 080 pixels
    Display aspect ratio        : 16:9
    Frame rate mode             : Constant
    Frame rate                  : 29.970 (29970/1000) FPS
    Color space                 : YUV
    Chroma subsampling          : 4:2:0
    Bit depth                   : 8 bits
    Scan type                   : Progressive
    Bits/(Pixel*Frame)          : 0.193
    Stream size                 : 2.31 GiB (95%)
    Writing library             : x264 core 128 r2216 198a7ea
    Encoding settings           : cabac=1 / ref=5 / deblock=1:0:0 / analyse=0x3:0x113 / me=umh / subme=8 / psy=1 / psy_rd=1.00:0.00 / mixed_ref=1 / me_range=16 / chroma_me=1 / trellis=1 / 8x8dct=1 / cqm=0 / deadzone=21,11 / fast_pskip=1 / chroma_qp_offset=-2 / threads=36 / lookahead_threads=6 / sliced_threads=0 / nr=0 / decimate=1 / interlaced=0 / bluray_compat=0 / constrained_intra=0 / bframes=3 / b_pyramid=2 / b_adapt=2 / b_bias=0 / direct=3 / weightb=1 / open_gop=0 / weightp=2 / keyint=60 / keyint_min=6 / scenecut=40 / intra_refresh=0 / rc_lookahead=50 / rc=abr / mbtree=1 / bitrate=12000 / ratetol=1.0 / qcomp=0.60 / qpmin=0 / qpmax=69 / qpstep=4 / ip_ratio=1.40 / aq=1:1.00
    Tagged date                 : UTC 2014-05-13 21:08:53
    
    Audio
    ID                          : 2
    Format                      : AAC
    Format/Info                 : Advanced Audio Codec
    Format profile              : LC
    Codec ID                    : 40
    Duration                    : 27 min
    Duration_LastFrame          : 15 s 564 ms
    Bit rate mode               : Constant
    Bit rate                    : 127 kb/s
    Channel(s)                  : 2 channels
    Channel positions           : Front: L R
    Sampling rate               : 48.0 kHz
    Frame rate                  : 46.875 FPS (1024 spf)
    Compression mode            : Lossy
    Stream size                 : 25.4 MiB (1%)
    Default                     : Yes
    Alternate group             : 1
    Tagged date                 : UTC 2014-05-13 21:08:53
    
    Other #1
    ID                          : 65536
    Type                        : Hint
    Format                      : RTP
    Codec ID                    : rtp 
    Duration                    : 27 min
    Encoded date                : UTC 2014-05-13 21:08:09
    Tagged date                 : UTC 2014-05-13 21:08:53
    Source duration             : 1662329
    Source frame count          : 49820
    Source stream size          : 102435448
    Stream size                 : 102435448
    
    Other #2
    ID                          : 65537
    Type                        : Hint
    Format                      : RTP
    Codec ID                    : rtp 
    Duration                    : 27 min
    Encoded date                : UTC 2014-05-13 21:08:46
    Tagged date                 : UTC 2014-05-13 21:08:53
    Bit rate mode               : VBR
    
    Direct link:
    Mã:
    https://www.fshare.vn/file/APHXXOCCGZCH
     
    Santa77 thích bài này.
  6. noelhao

    noelhao Ultra HD4K Thành viên BQT

    Bài viết:
    6,240
    Đã được thích:
    1,063
    BRAZZERS - 103 - Fucking Party of the Year 2014 - Kagney Linn Karter_Danny D 1080p WEB-DL

    [​IMG]

    Screenshot:


    [​IMG]

    Mediainfo:
    Mã:
    103 - Fucking Party of the Year 2014 - Kagney Linn Karter_Danny D.mp4
    Format                      : MPEG-4
    Format profile              : Base Media
    Codec ID                    : isom (isom/iso2/avc1/mp41)
    File size                   : 3.20 GiB
    Duration                    : 36 min
    Overall bit rate            : 12.5 Mb/s
    Writing application         : Lavf55.1.100
    
    Video
    ID                          : 1
    Format                      : AVC
    Format/Info                 : Advanced Video Codec
    Format profile              : [email protected]
    Format settings, CABAC      : Yes
    Format settings, ReFrames   : 5 frames
    Codec ID                    : avc1
    Codec ID/Info               : Advanced Video Coding
    Duration                    : 36 min
    Bit rate                    : 12.0 Mb/s
    Width                       : 1 920 pixels
    Height                      : 1 080 pixels
    Display aspect ratio        : 16:9
    Frame rate mode             : Constant
    Frame rate                  : 29.970 (29970/1000) FPS
    Color space                 : YUV
    Chroma subsampling          : 4:2:0
    Bit depth                   : 8 bits
    Scan type                   : Progressive
    Bits/(Pixel*Frame)          : 0.193
    Stream size                 : 3.04 GiB (95%)
    Writing library             : x264 core 130 r2274 c832fe9
    Encoding settings           : cabac=1 / ref=5 / deblock=1:0:0 / analyse=0x3:0x113 / me=umh / subme=8 / psy=1 / psy_rd=1.00:0.00 / mixed_ref=1 / me_range=16 / chroma_me=1 / trellis=1 / 8x8dct=1 / cqm=0 / deadzone=21,11 / fast_pskip=1 / chroma_qp_offset=-2 / threads=36 / lookahead_threads=6 / sliced_threads=0 / nr=0 / decimate=1 / interlaced=0 / bluray_compat=0 / constrained_intra=0 / bframes=3 / b_pyramid=2 / b_adapt=2 / b_bias=0 / direct=3 / weightb=1 / open_gop=0 / weightp=2 / keyint=60 / keyint_min=6 / scenecut=40 / intra_refresh=0 / rc_lookahead=50 / rc=abr / mbtree=1 / bitrate=12000 / ratetol=1.0 / qcomp=0.60 / qpmin=0 / qpmax=69 / qpstep=4 / ip_ratio=1.40 / aq=1:1.00
    Tagged date                 : UTC 2014-08-27 23:22:23
    
    Audio
    ID                          : 2
    Format                      : AAC
    Format/Info                 : Advanced Audio Codec
    Format profile              : LC
    Codec ID                    : 40
    Duration                    : 36 min
    Duration_LastFrame          : 15 s 564 ms
    Bit rate mode               : Constant
    Bit rate                    : 127 kb/s
    Channel(s)                  : 2 channels
    Channel positions           : Front: L R
    Sampling rate               : 48.0 kHz
    Frame rate                  : 46.875 FPS (1024 spf)
    Compression mode            : Lossy
    Stream size                 : 33.2 MiB (1%)
    Default                     : Yes
    Alternate group             : 1
    Tagged date                 : UTC 2014-08-27 23:22:23
    
    Other #1
    ID                          : 65536
    Type                        : Hint
    Format                      : RTP
    Codec ID                    : rtp 
    Duration                    : 36 min
    Encoded date                : UTC 2014-08-27 23:22:12
    Tagged date                 : UTC 2014-08-27 23:22:23
    
    Other #2
    ID                          : 65537
    Type                        : Hint
    Format                      : RTP
    Codec ID                    : rtp 
    Duration                    : 36 min
    Encoded date                : UTC 2014-08-27 23:22:21
    Tagged date                 : UTC 2014-08-27 23:22:23
    Bit rate mode               : VBR
    
    Direct link:
    Mã:
    https://www.fshare.vn/file/52I4THNMTY3A
     
    Santa77 thích bài này.
  7. noelhao

    noelhao Ultra HD4K Thành viên BQT

    Bài viết:
    6,240
    Đã được thích:
    1,063
    BRAZZERS - 104 - Wake Me Up Before You Cum Cum 2014 - Brooklyn Chase_Kagney Linn Karter_Jessy Jones 1080p WEB-DL

    [​IMG]

    Screenshot:


    [​IMG]

    Mediainfo:
    Mã:
    104 - Wake Me Up Before You Cum Cum 2014 - Brooklyn Chase_Kagney Linn Karter_Jessy Jones.mp4
    Format                      : MPEG-4
    Format profile              : Base Media
    Codec ID                    : isom (isom/iso2/avc1/mp41)
    File size                   : 3.66 GiB
    Duration                    : 41 min
    Overall bit rate            : 12.5 Mb/s
    Writing application         : Lavf54.37.100
    
    Video
    ID                          : 1
    Format                      : AVC
    Format/Info                 : Advanced Video Codec
    Format profile              : [email protected]
    Format settings, CABAC      : Yes
    Format settings, ReFrames   : 5 frames
    Codec ID                    : avc1
    Codec ID/Info               : Advanced Video Coding
    Duration                    : 41 min
    Bit rate                    : 12.0 Mb/s
    Width                       : 1 920 pixels
    Height                      : 1 080 pixels
    Display aspect ratio        : 16:9
    Frame rate mode             : Constant
    Frame rate                  : 29.970 (29970/1000) FPS
    Color space                 : YUV
    Chroma subsampling          : 4:2:0
    Bit depth                   : 8 bits
    Scan type                   : Progressive
    Bits/(Pixel*Frame)          : 0.193
    Stream size                 : 3.47 GiB (95%)
    Writing library             : x264 core 128 r2216 198a7ea
    Encoding settings           : cabac=1 / ref=5 / deblock=1:0:0 / analyse=0x3:0x113 / me=umh / subme=8 / psy=1 / psy_rd=1.00:0.00 / mixed_ref=1 / me_range=16 / chroma_me=1 / trellis=1 / 8x8dct=1 / cqm=0 / deadzone=21,11 / fast_pskip=1 / chroma_qp_offset=-2 / threads=36 / lookahead_threads=6 / sliced_threads=0 / nr=0 / decimate=1 / interlaced=0 / bluray_compat=0 / constrained_intra=0 / bframes=3 / b_pyramid=2 / b_adapt=2 / b_bias=0 / direct=3 / weightb=1 / open_gop=0 / weightp=2 / keyint=60 / keyint_min=6 / scenecut=40 / intra_refresh=0 / rc_lookahead=50 / rc=abr / mbtree=1 / bitrate=12000 / ratetol=1.0 / qcomp=0.60 / qpmin=0 / qpmax=69 / qpstep=4 / ip_ratio=1.40 / aq=1:1.00
    Tagged date                 : UTC 2014-09-16 03:56:03
    
    Audio
    ID                          : 2
    Format                      : AAC
    Format/Info                 : Advanced Audio Codec
    Format profile              : LC
    Codec ID                    : 40
    Duration                    : 41 min
    Duration_LastFrame          : 15 s 564 ms
    Bit rate mode               : Constant
    Bit rate                    : 127 kb/s
    Channel(s)                  : 2 channels
    Channel positions           : Front: L R
    Sampling rate               : 48.0 kHz
    Frame rate                  : 46.875 FPS (1024 spf)
    Compression mode            : Lossy
    Stream size                 : 38.0 MiB (1%)
    Default                     : Yes
    Alternate group             : 1
    Tagged date                 : UTC 2014-09-16 03:56:03
    
    Other #1
    ID                          : 65536
    Type                        : Hint
    Format                      : RTP
    Codec ID                    : rtp 
    Duration                    : 41 min
    Encoded date                : UTC 2014-09-16 03:54:36
    Tagged date                 : UTC 2014-09-16 03:56:03
    
    Other #2
    ID                          : 65537
    Type                        : Hint
    Format                      : RTP
    Codec ID                    : rtp 
    Duration                    : 41 min
    Encoded date                : UTC 2014-09-16 03:55:49
    Tagged date                 : UTC 2014-09-16 03:56:03
    Bit rate mode               : VBR
    
    Direct link:
    Mã:
    https://www.fshare.vn/file/2TNKNBBCH3R9
     
    Santa77 thích bài này.
  8. noelhao

    noelhao Ultra HD4K Thành viên BQT

    Bài viết:
    6,240
    Đã được thích:
    1,063
    BRAZZERS - 105 - Deez Tits For President 2014 - Kagney Linn Karter_Levi Cash 1080p WEB-DL

    [​IMG]

    Screenshot:


    [​IMG]

    Mediainfo:
    Mã:
    105 - Deez Tits For President 2016 - Kagney Linn Karter_Levi Cash.mp4
    Format                      : MPEG-4
    Format profile              : Base Media
    Codec ID                    : isom (isom/iso2/avc1/mp41)
    File size                   : 3.09 GiB
    Duration                    : 35 min
    Overall bit rate            : 12.6 Mb/s
    Writing application         : Lavf55.1.100
    
    Video
    ID                          : 1
    Format                      : AVC
    Format/Info                 : Advanced Video Codec
    Format profile              : [email protected]
    Format settings, CABAC      : Yes
    Format settings, ReFrames   : 5 frames
    Codec ID                    : avc1
    Codec ID/Info               : Advanced Video Coding
    Duration                    : 35 min
    Bit rate                    : 12.0 Mb/s
    Width                       : 1 920 pixels
    Height                      : 1 080 pixels
    Display aspect ratio        : 16:9
    Frame rate mode             : Constant
    Frame rate                  : 23.976 (24000/1001) FPS
    Color space                 : YUV
    Chroma subsampling          : 4:2:0
    Bit depth                   : 8 bits
    Scan type                   : Progressive
    Bits/(Pixel*Frame)          : 0.241
    Stream size                 : 2.94 GiB (95%)
    Writing library             : x264 core 130 r2274 c832fe9
    Encoding settings           : cabac=1 / ref=5 / deblock=1:0:0 / analyse=0x3:0x113 / me=umh / subme=8 / psy=1 / psy_rd=1.00:0.00 / mixed_ref=1 / me_range=16 / chroma_me=1 / trellis=1 / 8x8dct=1 / cqm=0 / deadzone=21,11 / fast_pskip=1 / chroma_qp_offset=-2 / threads=36 / lookahead_threads=6 / sliced_threads=0 / nr=0 / decimate=1 / interlaced=0 / bluray_compat=0 / constrained_intra=0 / bframes=3 / b_pyramid=2 / b_adapt=2 / b_bias=0 / direct=3 / weightb=1 / open_gop=0 / weightp=2 / keyint=60 / keyint_min=6 / scenecut=40 / intra_refresh=0 / rc_lookahead=50 / rc=abr / mbtree=1 / bitrate=12000 / ratetol=1.0 / qcomp=0.60 / qpmin=0 / qpmax=69 / qpstep=4 / ip_ratio=1.40 / aq=1:1.00
    Language                    : English
    Tagged date                 : UTC 2016-01-07 06:00:36
    
    Audio
    ID                          : 2
    Format                      : AAC
    Format/Info                 : Advanced Audio Codec
    Format profile              : LC
    Codec ID                    : 40
    Duration                    : 35 min
    Duration_LastFrame          : 33 ms
    Bit rate mode               : Constant
    Bit rate                    : 128 kb/s
    Channel(s)                  : 2 channels
    Channel positions           : Front: L R
    Sampling rate               : 48.0 kHz
    Frame rate                  : 46.875 FPS (1024 spf)
    Compression mode            : Lossy
    Stream size                 : 32.2 MiB (1%)
    Language                    : English
    Default                     : Yes
    Alternate group             : 1
    Tagged date                 : UTC 2016-01-07 06:00:36
    
    Other #1
    ID                          : 65536
    Type                        : Hint
    Format                      : RTP
    Codec ID                    : rtp 
    Duration                    : 35 min
    Encoded date                : UTC 2016-01-07 06:00:25
    Tagged date                 : UTC 2016-01-07 06:00:36
    
    Other #2
    ID                          : 65537
    Type                        : Hint
    Format                      : RTP
    Codec ID                    : rtp 
    Duration                    : 35 min
    Encoded date                : UTC 2016-01-07 06:00:35
    Tagged date                 : UTC 2016-01-07 06:00:36
    Bit rate mode               : VBR
    
    Direct link:
    Mã:
    https://www.fshare.vn/file/9JPMQKBLQOV3
     
    Santa77 thích bài này.
  9. noelhao

    noelhao Ultra HD4K Thành viên BQT

    Bài viết:
    6,240
    Đã được thích:
    1,063
    BRAZZERS - 106 - Don't Touch Her 2016 - Kagney Linn Karter_Ramon 1080p WEB-DL

    [​IMG]

    Screenshot:


    [​IMG]

    Mediainfo:
    Mã:
    106 - Don't Touch Her 2016 - Kagney Linn Karter_Ramon.mp4
    Format                      : MPEG-4
    Format profile              : Base Media
    Codec ID                    : isom (isom/iso2/avc1/mp41)
    File size                   : 3.24 GiB
    Duration                    : 37 min
    Overall bit rate            : 12.5 Mb/s
    Writing application         : Lavf55.1.100
    
    Video
    ID                          : 1
    Format                      : AVC
    Format/Info                 : Advanced Video Codec
    Format profile              : [email protected]
    Format settings, CABAC      : Yes
    Format settings, ReFrames   : 5 frames
    Codec ID                    : avc1
    Codec ID/Info               : Advanced Video Coding
    Duration                    : 37 min
    Bit rate                    : 12.0 Mb/s
    Width                       : 1 920 pixels
    Height                      : 1 080 pixels
    Display aspect ratio        : 16:9
    Frame rate mode             : Constant
    Frame rate                  : 23.976 (24000/1001) FPS
    Color space                 : YUV
    Chroma subsampling          : 4:2:0
    Bit depth                   : 8 bits
    Scan type                   : Progressive
    Bits/(Pixel*Frame)          : 0.241
    Stream size                 : 3.08 GiB (95%)
    Writing library             : x264 core 130 r2274 c832fe9
    Encoding settings           : cabac=1 / ref=5 / deblock=1:0:0 / analyse=0x3:0x113 / me=umh / subme=8 / psy=1 / psy_rd=1.00:0.00 / mixed_ref=1 / me_range=16 / chroma_me=1 / trellis=1 / 8x8dct=1 / cqm=0 / deadzone=21,11 / fast_pskip=1 / chroma_qp_offset=-2 / threads=36 / lookahead_threads=6 / sliced_threads=0 / nr=0 / decimate=1 / interlaced=0 / bluray_compat=0 / constrained_intra=0 / bframes=3 / b_pyramid=2 / b_adapt=2 / b_bias=0 / direct=3 / weightb=1 / open_gop=0 / weightp=2 / keyint=60 / keyint_min=6 / scenecut=40 / intra_refresh=0 / rc_lookahead=50 / rc=abr / mbtree=1 / bitrate=12000 / ratetol=1.0 / qcomp=0.60 / qpmin=0 / qpmax=69 / qpstep=4 / ip_ratio=1.40 / aq=1:1.00
    Language                    : English
    Tagged date                 : UTC 2016-01-26 01:53:43
    
    Audio
    ID                          : 2
    Format                      : AAC
    Format/Info                 : Advanced Audio Codec
    Format profile              : LC
    Codec ID                    : 40
    Duration                    : 37 min
    Duration_LastFrame          : 33 ms
    Bit rate mode               : Constant
    Bit rate                    : 128 kb/s
    Channel(s)                  : 2 channels
    Channel positions           : Front: L R
    Sampling rate               : 48.0 kHz
    Frame rate                  : 46.875 FPS (1024 spf)
    Compression mode            : Lossy
    Stream size                 : 33.9 MiB (1%)
    Language                    : English
    Default                     : Yes
    Alternate group             : 1
    Tagged date                 : UTC 2016-01-26 01:53:43
    
    Other #1
    ID                          : 65536
    Type                        : Hint
    Format                      : RTP
    Codec ID                    : rtp 
    Duration                    : 37 min
    Encoded date                : UTC 2016-01-26 01:53:31
    Tagged date                 : UTC 2016-01-26 01:53:43
    
    Other #2
    ID                          : 65537
    Type                        : Hint
    Format                      : RTP
    Codec ID                    : rtp 
    Duration                    : 37 min
    Encoded date                : UTC 2016-01-26 01:53:41
    Tagged date                 : UTC 2016-01-26 01:53:43
    Bit rate mode               : VBR
    
    
    Direct link:
    Mã:
    https://www.fshare.vn/file/2NU3I1B7R2NV
     
    Santa77 thích bài này.
  10. noelhao

    noelhao Ultra HD4K Thành viên BQT

    Bài viết:
    6,240
    Đã được thích:
    1,063
    BRAZZERS - 107 - Sexperiments 2016 - Noelle Easton_Peta Jensen_Charles Dera 1080p WEB-DL

    [​IMG]

    Screenshot:


    [​IMG]

    Mediainfo:
    Mã:
    107 - Sexperiments 2016 - Noelle Easton_Peta Jensen_Charles Dera.mp4
    Format                      : MPEG-4
    Format profile              : Base Media
    Codec ID                    : isom (isom/iso2/avc1/mp41)
    File size                   : 4.88 GiB
    Duration                    : 55 min
    Overall bit rate            : 12.6 Mb/s
    Writing application         : Lavf55.1.100
    
    Video
    ID                          : 1
    Format                      : AVC
    Format/Info                 : Advanced Video Codec
    Format profile              : [email protected]
    Format settings, CABAC      : Yes
    Format settings, ReFrames   : 5 frames
    Codec ID                    : avc1
    Codec ID/Info               : Advanced Video Coding
    Duration                    : 55 min
    Bit rate                    : 12.0 Mb/s
    Width                       : 1 920 pixels
    Height                      : 1 080 pixels
    Display aspect ratio        : 16:9
    Frame rate mode             : Constant
    Frame rate                  : 23.976 (23976/1000) FPS
    Color space                 : YUV
    Chroma subsampling          : 4:2:0
    Bit depth                   : 8 bits
    Scan type                   : Progressive
    Bits/(Pixel*Frame)          : 0.241
    Stream size                 : 4.64 GiB (95%)
    Writing library             : x264 core 130 r2274 c832fe9
    Encoding settings           : cabac=1 / ref=5 / deblock=1:0:0 / analyse=0x3:0x113 / me=umh / subme=8 / psy=1 / psy_rd=1.00:0.00 / mixed_ref=1 / me_range=16 / chroma_me=1 / trellis=1 / 8x8dct=1 / cqm=0 / deadzone=21,11 / fast_pskip=1 / chroma_qp_offset=-2 / threads=36 / lookahead_threads=6 / sliced_threads=0 / nr=0 / decimate=1 / interlaced=0 / bluray_compat=0 / constrained_intra=0 / bframes=3 / b_pyramid=2 / b_adapt=2 / b_bias=0 / direct=3 / weightb=1 / open_gop=0 / weightp=2 / keyint=60 / keyint_min=6 / scenecut=40 / intra_refresh=0 / rc_lookahead=50 / rc=abr / mbtree=1 / bitrate=12000 / ratetol=1.0 / qcomp=0.60 / qpmin=0 / qpmax=69 / qpstep=4 / ip_ratio=1.40 / aq=1:1.00
    Language                    : English
    Tagged date                 : UTC 2016-01-05 22:58:05
    
    Audio
    ID                          : 2
    Format                      : AAC
    Format/Info                 : Advanced Audio Codec
    Format profile              : LC
    Codec ID                    : 40
    Duration                    : 55 min
    Duration_LastFrame          : 33 ms
    Bit rate mode               : Constant
    Bit rate                    : 128 kb/s
    Channel(s)                  : 2 channels
    Channel positions           : Front: L R
    Sampling rate               : 48.0 kHz
    Frame rate                  : 46.875 FPS (1024 spf)
    Compression mode            : Lossy
    Stream size                 : 50.8 MiB (1%)
    Language                    : English
    Default                     : Yes
    Alternate group             : 1
    Tagged date                 : UTC 2016-01-05 22:58:05
    
    Other #1
    ID                          : 65536
    Type                        : Hint
    Format                      : RTP
    Codec ID                    : rtp 
    Duration                    : 55 min
    Encoded date                : UTC 2016-01-05 22:57:49
    Tagged date                 : UTC 2016-01-05 22:58:05
    
    Other #2
    ID                          : 65537
    Type                        : Hint
    Format                      : RTP
    Codec ID                    : rtp 
    Duration                    : 55 min
    Encoded date                : UTC 2016-01-05 22:58:03
    Tagged date                 : UTC 2016-01-05 22:58:05
    Bit rate mode               : VBR
    
    Direct link:
    Mã:
    https://www.fshare.vn/file/A3C4BWEW5OP9
     
    Santa77 thích bài này.
  11. noelhao

    noelhao Ultra HD4K Thành viên BQT

    Bài viết:
    6,240
    Đã được thích:
    1,063
    BRAZZERS - 108 - One Wet Cheerleader 2016 - Peta Jensen_Ramon 1080p WEB-DL

    [​IMG]

    Screenshot:


    [​IMG]

    Mediainfo:
    Mã:
    108 - One Wet Cheerleader 2016 - Peta Jensen_Ramon.mp4
    Format                      : MPEG-4
    Format profile              : Base Media
    Codec ID                    : isom (isom/iso2/avc1/mp41)
    File size                   : 2.59 GiB
    Duration                    : 29 min
    Overall bit rate            : 12.5 Mb/s
    Writing application         : Lavf55.1.100
    
    Video
    ID                          : 1
    Format                      : AVC
    Format/Info                 : Advanced Video Codec
    Format profile              : [email protected]
    Format settings, CABAC      : Yes
    Format settings, ReFrames   : 5 frames
    Codec ID                    : avc1
    Codec ID/Info               : Advanced Video Coding
    Duration                    : 29 min
    Bit rate                    : 12.0 Mb/s
    Width                       : 1 920 pixels
    Height                      : 1 080 pixels
    Display aspect ratio        : 16:9
    Frame rate mode             : Constant
    Frame rate                  : 29.970 (29970/1000) FPS
    Color space                 : YUV
    Chroma subsampling          : 4:2:0
    Bit depth                   : 8 bits
    Scan type                   : Progressive
    Bits/(Pixel*Frame)          : 0.193
    Stream size                 : 2.46 GiB (95%)
    Writing library             : x264 core 130 r2274 c832fe9
    Encoding settings           : cabac=1 / ref=5 / deblock=1:0:0 / analyse=0x3:0x113 / me=umh / subme=8 / psy=1 / psy_rd=1.00:0.00 / mixed_ref=1 / me_range=16 / chroma_me=1 / trellis=1 / 8x8dct=1 / cqm=0 / deadzone=21,11 / fast_pskip=1 / chroma_qp_offset=-2 / threads=36 / lookahead_threads=6 / sliced_threads=0 / nr=0 / decimate=1 / interlaced=0 / bluray_compat=0 / constrained_intra=0 / bframes=3 / b_pyramid=2 / b_adapt=2 / b_bias=0 / direct=3 / weightb=1 / open_gop=0 / weightp=2 / keyint=60 / keyint_min=6 / scenecut=40 / intra_refresh=0 / rc_lookahead=50 / rc=abr / mbtree=1 / bitrate=12000 / ratetol=1.0 / qcomp=0.60 / qpmin=0 / qpmax=69 / qpstep=4 / ip_ratio=1.40 / aq=1:1.00
    Language                    : English
    Tagged date                 : UTC 2016-01-15 05:17:33
    
    Audio
    ID                          : 2
    Format                      : AAC
    Format/Info                 : Advanced Audio Codec
    Format profile              : LC
    Codec ID                    : 40
    Duration                    : 29 min
    Duration_LastFrame          : 33 ms
    Bit rate mode               : Constant
    Bit rate                    : 128 kb/s
    Channel(s)                  : 2 channels
    Channel positions           : Front: L R
    Sampling rate               : 48.0 kHz
    Frame rate                  : 46.875 FPS (1024 spf)
    Compression mode            : Lossy
    Stream size                 : 27.1 MiB (1%)
    Language                    : English
    Default                     : Yes
    Alternate group             : 1
    Tagged date                 : UTC 2016-01-15 05:17:33
    
    Other #1
    ID                          : 65536
    Type                        : Hint
    Format                      : RTP
    Codec ID                    : rtp 
    Duration                    : 29 min
    Encoded date                : UTC 2016-01-15 05:17:27
    Tagged date                 : UTC 2016-01-15 05:17:33
    
    Other #2
    ID                          : 65537
    Type                        : Hint
    Format                      : RTP
    Codec ID                    : rtp 
    Duration                    : 29 min
    Encoded date                : UTC 2016-01-15 05:17:32
    Tagged date                 : UTC 2016-01-15 05:17:33
    Bit rate mode               : VBR
    
    Direct link:
    Mã:
    https://www.fshare.vn/file/GD9WGAU5SC1V
     
    Santa77 thích bài này.
  12. noelhao

    noelhao Ultra HD4K Thành viên BQT

    Bài viết:
    6,240
    Đã được thích:
    1,063
    BRAZZERS - 109 - Sibling Rivalry 2 2016 - Megan Rain_Peta Jensen_Chad Alva 1080p WEB-DL

    [​IMG]

    Screenshot:


    [​IMG]

    Mediainfo:
    Mã:
    109 - Sibling Rivalry 2 2016 - Megan Rain_Peta Jensen_Chad Alva.mp4
    Format                      : MPEG-4
    Format profile              : Base Media
    Codec ID                    : isom (isom/iso2/avc1/mp41)
    File size                   : 2.88 GiB
    Duration                    : 32 min
    Overall bit rate            : 12.6 Mb/s
    Writing application         : Lavf55.1.100
    
    Video
    ID                          : 1
    Format                      : AVC
    Format/Info                 : Advanced Video Codec
    Format profile              : [email protected]
    Format settings, CABAC      : Yes
    Format settings, ReFrames   : 5 frames
    Codec ID                    : avc1
    Codec ID/Info               : Advanced Video Coding
    Duration                    : 32 min
    Bit rate                    : 12.0 Mb/s
    Width                       : 1 920 pixels
    Height                      : 1 080 pixels
    Display aspect ratio        : 16:9
    Frame rate mode             : Constant
    Frame rate                  : 29.970 (29970/1000) FPS
    Color space                 : YUV
    Chroma subsampling          : 4:2:0
    Bit depth                   : 8 bits
    Scan type                   : Progressive
    Bits/(Pixel*Frame)          : 0.193
    Stream size                 : 2.74 GiB (95%)
    Writing library             : x264 core 130 r2274 c832fe9
    Encoding settings           : cabac=1 / ref=5 / deblock=1:0:0 / analyse=0x3:0x113 / me=umh / subme=8 / psy=1 / psy_rd=1.00:0.00 / mixed_ref=1 / me_range=16 / chroma_me=1 / trellis=1 / 8x8dct=1 / cqm=0 / deadzone=21,11 / fast_pskip=1 / chroma_qp_offset=-2 / threads=36 / lookahead_threads=6 / sliced_threads=0 / nr=0 / decimate=1 / interlaced=0 / bluray_compat=0 / constrained_intra=0 / bframes=3 / b_pyramid=2 / b_adapt=2 / b_bias=0 / direct=3 / weightb=1 / open_gop=0 / weightp=2 / keyint=60 / keyint_min=6 / scenecut=40 / intra_refresh=0 / rc_lookahead=50 / rc=abr / mbtree=1 / bitrate=12000 / ratetol=1.0 / qcomp=0.60 / qpmin=0 / qpmax=69 / qpstep=4 / ip_ratio=1.40 / aq=1:1.00
    Language                    : English
    Tagged date                 : UTC 2016-01-27 20:06:12
    
    Audio
    ID                          : 2
    Format                      : AAC
    Format/Info                 : Advanced Audio Codec
    Format profile              : LC
    Codec ID                    : 40
    Duration                    : 32 min
    Duration_LastFrame          : 33 ms
    Bit rate mode               : Constant
    Bit rate                    : 128 kb/s
    Channel(s)                  : 2 channels
    Channel positions           : Front: L R
    Sampling rate               : 48.0 kHz
    Frame rate                  : 46.875 FPS (1024 spf)
    Compression mode            : Lossy
    Stream size                 : 30.0 MiB (1%)
    Language                    : English
    Default                     : Yes
    Alternate group             : 1
    Tagged date                 : UTC 2016-01-27 20:06:12
    
    Other #1
    ID                          : 65536
    Type                        : Hint
    Format                      : RTP
    Codec ID                    : rtp 
    Duration                    : 32 min
    Encoded date                : UTC 2016-01-27 20:06:04
    Tagged date                 : UTC 2016-01-27 20:06:12
    
    Other #2
    ID                          : 65537
    Type                        : Hint
    Format                      : RTP
    Codec ID                    : rtp 
    Duration                    : 32 min
    Encoded date                : UTC 2016-01-27 20:06:10
    Tagged date                 : UTC 2016-01-27 20:06:12
    Bit rate mode               : VBR
    
    Direct link:
    Mã:
    https://www.fshare.vn/file/AYQGSEB5FIZ4
     
    Santa77 thích bài này.
  13. noelhao

    noelhao Ultra HD4K Thành viên BQT

    Bài viết:
    6,240
    Đã được thích:
    1,063
    BRAZZERS - 110 - Anything He Desires First Anal 2016 - Allie Haze_Peta Jensen_Bill Bailey_Levi Cash 1080p WEB-DL

    [​IMG]

    Screenshot:


    [​IMG]

    Mediainfo:
    Mã:
    110 - Anything He Desires First Anal 2016 - Allie Haze_Peta Jensen_Bill Bailey_Levi Cash.mp4
    Format                      : MPEG-4
    Format profile              : Base Media
    Codec ID                    : isom (isom/iso2/avc1/mp41)
    File size                   : 11.5 GiB
    Duration                    : 2 h 10 min
    Overall bit rate            : 12.6 Mb/s
    Writing application         : Lavf55.1.100
    
    Video
    ID                          : 1
    Format                      : AVC
    Format/Info                 : Advanced Video Codec
    Format profile              : [email protected]
    Format settings, CABAC      : Yes
    Format settings, ReFrames   : 5 frames
    Codec ID                    : avc1
    Codec ID/Info               : Advanced Video Coding
    Duration                    : 2 h 10 min
    Bit rate                    : 12.0 Mb/s
    Width                       : 1 920 pixels
    Height                      : 1 080 pixels
    Display aspect ratio        : 16:9
    Frame rate mode             : Constant
    Frame rate                  : 23.976 (24000/1001) FPS
    Color space                 : YUV
    Chroma subsampling          : 4:2:0
    Bit depth                   : 8 bits
    Scan type                   : Progressive
    Bits/(Pixel*Frame)          : 0.241
    Stream size                 : 10.9 GiB (95%)
    Writing library             : x264 core 130 r2274 c832fe9
    Encoding settings           : cabac=1 / ref=5 / deblock=1:0:0 / analyse=0x3:0x113 / me=umh / subme=8 / psy=1 / psy_rd=1.00:0.00 / mixed_ref=1 / me_range=16 / chroma_me=1 / trellis=1 / 8x8dct=1 / cqm=0 / deadzone=21,11 / fast_pskip=1 / chroma_qp_offset=-2 / threads=36 / lookahead_threads=6 / sliced_threads=0 / nr=0 / decimate=1 / interlaced=0 / bluray_compat=0 / constrained_intra=0 / bframes=3 / b_pyramid=2 / b_adapt=2 / b_bias=0 / direct=3 / weightb=1 / open_gop=0 / weightp=2 / keyint=60 / keyint_min=6 / scenecut=40 / intra_refresh=0 / rc_lookahead=50 / rc=abr / mbtree=1 / bitrate=12000 / ratetol=1.0 / qcomp=0.60 / qpmin=0 / qpmax=69 / qpstep=4 / ip_ratio=1.40 / aq=1:1.00
    Language                    : English
    Tagged date                 : UTC 2016-02-13 06:49:09
    
    Audio
    ID                          : 2
    Format                      : AAC
    Format/Info                 : Advanced Audio Codec
    Format profile              : LC
    Codec ID                    : 40
    Duration                    : 2 h 10 min
    Duration_LastFrame          : 33 ms
    Bit rate mode               : Constant
    Bit rate                    : 128 kb/s
    Channel(s)                  : 2 channels
    Channel positions           : Front: L R
    Sampling rate               : 48.0 kHz
    Frame rate                  : 46.875 FPS (1024 spf)
    Compression mode            : Lossy
    Stream size                 : 120 MiB (1%)
    Language                    : English
    Default                     : Yes
    Alternate group             : 1
    Tagged date                 : UTC 2016-02-13 06:49:09
    
    Other #1
    ID                          : 65536
    Type                        : Hint
    Format                      : RTP
    Codec ID                    : rtp 
    Duration                    : 2 h 10 min
    Encoded date                : UTC 2016-02-13 06:48:10
    Tagged date                 : UTC 2016-02-13 06:49:09
    
    Other #2
    ID                          : 65537
    Type                        : Hint
    Format                      : RTP
    Codec ID                    : rtp 
    Duration                    : 2 h 10 min
    Encoded date                : UTC 2016-02-13 06:49:02
    Tagged date                 : UTC 2016-02-13 06:49:09
    Bit rate mode               : VBR
    
    Direct link:
    Mã:
    https://www.fshare.vn/file/SSFGPYG1JCTU
     
    Santa77 thích bài này.
  14. noelhao

    noelhao Ultra HD4K Thành viên BQT

    Bài viết:
    6,240
    Đã được thích:
    1,063
    BRAZZERS - 111 - Overnight With Stepmom Part One 2015 - Tara Holiday_Danny D 1080p WEB-DL

    [​IMG]

    Screenshot:


    [​IMG]

    Mediainfo:
    Mã:
    111 - Overnight With Stepmom Part One 2015 - Tara Holiday_Danny D.mp4
    Format                      : MPEG-4
    Format profile              : Base Media
    Codec ID                    : isom (isom/iso2/avc1/mp41)
    File size                   : 3.02 GiB
    Duration                    : 34 min
    Overall bit rate            : 12.6 Mb/s
    Writing application         : Lavf55.1.100
    
    Video
    ID                          : 1
    Format                      : AVC
    Format/Info                 : Advanced Video Codec
    Format profile              : [email protected]
    Format settings, CABAC      : Yes
    Format settings, ReFrames   : 5 frames
    Codec ID                    : avc1
    Codec ID/Info               : Advanced Video Coding
    Duration                    : 34 min
    Bit rate                    : 12.0 Mb/s
    Width                       : 1 920 pixels
    Height                      : 1 080 pixels
    Display aspect ratio        : 16:9
    Frame rate mode             : Constant
    Frame rate                  : 29.970 (29970/1000) FPS
    Color space                 : YUV
    Chroma subsampling          : 4:2:0
    Bit depth                   : 8 bits
    Scan type                   : Progressive
    Bits/(Pixel*Frame)          : 0.193
    Stream size                 : 2.87 GiB (95%)
    Writing library             : x264 core 130 r2274 c832fe9
    Encoding settings           : cabac=1 / ref=5 / deblock=1:0:0 / analyse=0x3:0x113 / me=umh / subme=8 / psy=1 / psy_rd=1.00:0.00 / mixed_ref=1 / me_range=16 / chroma_me=1 / trellis=1 / 8x8dct=1 / cqm=0 / deadzone=21,11 / fast_pskip=1 / chroma_qp_offset=-2 / threads=36 / lookahead_threads=6 / sliced_threads=0 / nr=0 / decimate=1 / interlaced=0 / bluray_compat=0 / constrained_intra=0 / bframes=3 / b_pyramid=2 / b_adapt=2 / b_bias=0 / direct=3 / weightb=1 / open_gop=0 / weightp=2 / keyint=60 / keyint_min=6 / scenecut=40 / intra_refresh=0 / rc_lookahead=50 / rc=abr / mbtree=1 / bitrate=12000 / ratetol=1.0 / qcomp=0.60 / qpmin=0 / qpmax=69 / qpstep=4 / ip_ratio=1.40 / aq=1:1.00
    Tagged date                 : UTC 2015-08-04 23:25:44
    
    Audio
    ID                          : 2
    Format                      : AAC
    Format/Info                 : Advanced Audio Codec
    Format profile              : LC
    Codec ID                    : 40
    Duration                    : 34 min
    Duration_LastFrame          : 33 ms
    Bit rate mode               : Constant
    Bit rate                    : 128 kb/s
    Channel(s)                  : 2 channels
    Channel positions           : Front: L R
    Sampling rate               : 48.0 kHz
    Frame rate                  : 46.875 FPS (1024 spf)
    Compression mode            : Lossy
    Stream size                 : 31.5 MiB (1%)
    Default                     : Yes
    Alternate group             : 1
    Tagged date                 : UTC 2015-08-04 23:25:44
    
    Other #1
    ID                          : 65536
    Type                        : Hint
    Format                      : RTP
    Codec ID                    : rtp 
    Duration                    : 34 min
    Encoded date                : UTC 2015-08-04 23:25:34
    Tagged date                 : UTC 2015-08-04 23:25:44
    
    Other #2
    ID                          : 65537
    Type                        : Hint
    Format                      : RTP
    Codec ID                    : rtp 
    Duration                    : 34 min
    Encoded date                : UTC 2015-08-04 23:25:42
    Tagged date                 : UTC 2015-08-04 23:25:44
    Bit rate mode               : VBR
    
    Direct link:
    Mã:
    https://www.fshare.vn/file/2OXG6789CPAY
     
    Santa77 thích bài này.
  15. noelhao

    noelhao Ultra HD4K Thành viên BQT

    Bài viết:
    6,240
    Đã được thích:
    1,063
    BRAZZERS - 112 - Overnight With Stepmom Part Three 2015 - Alli Rae_Tara Holiday_Danny D 1080p WEB-DL

    [​IMG]

    Screenshot:


    [​IMG]

    Mediainfo:
    Mã:
    112 - Overnight With Stepmom Part Three 2015 - Alli Rae_Tara Holiday_Danny D.mp4
    Format                      : MPEG-4
    Format profile              : Base Media
    Codec ID                    : isom (isom/iso2/avc1/mp41)
    File size                   : 3.64 GiB
    Duration                    : 41 min
    Overall bit rate            : 12.6 Mb/s
    Writing application         : Lavf55.1.100
    
    Video
    ID                          : 1
    Format                      : AVC
    Format/Info                 : Advanced Video Codec
    Format profile              : [email protected]
    Format settings, CABAC      : Yes
    Format settings, ReFrames   : 5 frames
    Codec ID                    : avc1
    Codec ID/Info               : Advanced Video Coding
    Duration                    : 41 min
    Bit rate                    : 12.0 Mb/s
    Width                       : 1 920 pixels
    Height                      : 1 080 pixels
    Display aspect ratio        : 16:9
    Frame rate mode             : Constant
    Frame rate                  : 29.970 (29970/1000) FPS
    Color space                 : YUV
    Chroma subsampling          : 4:2:0
    Bit depth                   : 8 bits
    Scan type                   : Progressive
    Bits/(Pixel*Frame)          : 0.193
    Stream size                 : 3.46 GiB (95%)
    Writing library             : x264 core 130 r2274 c832fe9
    Encoding settings           : cabac=1 / ref=5 / deblock=1:0:0 / analyse=0x3:0x113 / me=umh / subme=8 / psy=1 / psy_rd=1.00:0.00 / mixed_ref=1 / me_range=16 / chroma_me=1 / trellis=1 / 8x8dct=1 / cqm=0 / deadzone=21,11 / fast_pskip=1 / chroma_qp_offset=-2 / threads=36 / lookahead_threads=6 / sliced_threads=0 / nr=0 / decimate=1 / interlaced=0 / bluray_compat=0 / constrained_intra=0 / bframes=3 / b_pyramid=2 / b_adapt=2 / b_bias=0 / direct=3 / weightb=1 / open_gop=0 / weightp=2 / keyint=60 / keyint_min=6 / scenecut=40 / intra_refresh=0 / rc_lookahead=50 / rc=abr / mbtree=1 / bitrate=12000 / ratetol=1.0 / qcomp=0.60 / qpmin=0 / qpmax=69 / qpstep=4 / ip_ratio=1.40 / aq=1:1.00
    Tagged date                 : UTC 2015-08-11 06:36:23
    
    Audio
    ID                          : 2
    Format                      : AAC
    Format/Info                 : Advanced Audio Codec
    Format profile              : LC
    Codec ID                    : 40
    Duration                    : 41 min
    Duration_LastFrame          : 33 ms
    Bit rate mode               : Constant
    Bit rate                    : 128 kb/s
    Channel(s)                  : 2 channels
    Channel positions           : Front: L R
    Sampling rate               : 48.0 kHz
    Frame rate                  : 46.875 FPS (1024 spf)
    Compression mode            : Lossy
    Stream size                 : 37.8 MiB (1%)
    Default                     : Yes
    Alternate group             : 1
    Tagged date                 : UTC 2015-08-11 06:36:23
    
    Other #1
    ID                          : 65536
    Type                        : Hint
    Format                      : RTP
    Codec ID                    : rtp 
    Duration                    : 41 min
    Encoded date                : UTC 2015-08-11 06:34:43
    Tagged date                 : UTC 2015-08-11 06:36:23
    
    Other #2
    ID                          : 65537
    Type                        : Hint
    Format                      : RTP
    Codec ID                    : rtp 
    Duration                    : 41 min
    Encoded date                : UTC 2015-08-11 06:36:06
    Tagged date                 : UTC 2015-08-11 06:36:23
    Bit rate mode               : VBR
    
    Direct link:
    Mã:
    https://www.fshare.vn/file/7NDNV5SCZQEH
     
    Santa77 thích bài này.
  16. noelhao

    noelhao Ultra HD4K Thành viên BQT

    Bài viết:
    6,240
    Đã được thích:
    1,063
    BRAZZERS - 113 - Your Son's a Fuck Up 2015 - Alison Tyler_ Xander Corvus 1080p WEB-DL

    [​IMG]

    Screenshot:


    [​IMG]

    Mediainfo:
    Mã:
    113 - Your Son's a Fuck Up 2015 - Alison Tyler_ Xander Corvus.mp4
    Format                      : MPEG-4
    Format profile              : Base Media
    Codec ID                    : isom (isom/iso2/avc1/mp41)
    File size                   : 2.42 GiB
    Duration                    : 27 min
    Overall bit rate            : 12.6 Mb/s
    Writing application         : Lavf55.1.100
    
    Video
    ID                          : 1
    Format                      : AVC
    Format/Info                 : Advanced Video Codec
    Format profile              : [email protected]
    Format settings, CABAC      : Yes
    Format settings, ReFrames   : 5 frames
    Codec ID                    : avc1
    Codec ID/Info               : Advanced Video Coding
    Duration                    : 27 min
    Bit rate                    : 12.0 Mb/s
    Width                       : 1 920 pixels
    Height                      : 1 080 pixels
    Display aspect ratio        : 16:9
    Frame rate mode             : Constant
    Frame rate                  : 23.976 (23976/1000) FPS
    Color space                 : YUV
    Chroma subsampling          : 4:2:0
    Bit depth                   : 8 bits
    Scan type                   : Progressive
    Bits/(Pixel*Frame)          : 0.241
    Stream size                 : 2.30 GiB (95%)
    Writing library             : x264 core 130 r2274 c832fe9
    Encoding settings           : cabac=1 / ref=5 / deblock=1:0:0 / analyse=0x3:0x113 / me=umh / subme=8 / psy=1 / psy_rd=1.00:0.00 / mixed_ref=1 / me_range=16 / chroma_me=1 / trellis=1 / 8x8dct=1 / cqm=0 / deadzone=21,11 / fast_pskip=1 / chroma_qp_offset=-2 / threads=36 / lookahead_threads=6 / sliced_threads=0 / nr=0 / decimate=1 / interlaced=0 / bluray_compat=0 / constrained_intra=0 / bframes=3 / b_pyramid=2 / b_adapt=2 / b_bias=0 / direct=3 / weightb=1 / open_gop=0 / weightp=2 / keyint=60 / keyint_min=6 / scenecut=40 / intra_refresh=0 / rc_lookahead=50 / rc=abr / mbtree=1 / bitrate=12000 / ratetol=1.0 / qcomp=0.60 / qpmin=0 / qpmax=69 / qpstep=4 / ip_ratio=1.40 / aq=1:1.00
    Language                    : English
    Tagged date                 : UTC 2015-10-16 23:29:15
    
    Audio
    ID                          : 2
    Format                      : AAC
    Format/Info                 : Advanced Audio Codec
    Format profile              : LC
    Codec ID                    : 40
    Duration                    : 27 min
    Duration_LastFrame          : 33 ms
    Bit rate mode               : Constant
    Bit rate                    : 128 kb/s
    Channel(s)                  : 2 channels
    Channel positions           : Front: L R
    Sampling rate               : 48.0 kHz
    Frame rate                  : 46.875 FPS (1024 spf)
    Compression mode            : Lossy
    Stream size                 : 25.2 MiB (1%)
    Language                    : English
    Default                     : Yes
    Alternate group             : 1
    Tagged date                 : UTC 2015-10-16 23:29:15
    
    Other #1
    ID                          : 65536
    Type                        : Hint
    Format                      : RTP
    Codec ID                    : rtp 
    Duration                    : 27 min
    Encoded date                : UTC 2015-10-16 23:29:08
    Tagged date                 : UTC 2015-10-16 23:29:15
    
    Other #2
    ID                          : 65537
    Type                        : Hint
    Format                      : RTP
    Codec ID                    : rtp 
    Duration                    : 27 min
    Encoded date                : UTC 2015-10-16 23:29:14
    Tagged date                 : UTC 2015-10-16 23:29:15
    Bit rate mode               : VBR
    
    Pass giải nén (Extract rar): SbeeKgXq
    Direct link:
    Mã:
    https://www.fshare.vn/file/7XTZA6PREHY2
     
    Santa77 thích bài này.
  17. noelhao

    noelhao Ultra HD4K Thành viên BQT

    Bài viết:
    6,240
    Đã được thích:
    1,063
    BRAZZERS - 114 - Milf Teaches Newlyweds 2015 - Carolina Abril_Leigh Darby_Chris Diamond 1080p WEB-DL

    [​IMG]

    Screenshot:


    [​IMG]

    Mediainfo:
    Mã:
    114 - Milf Teaches Newlyweds 2015 - Carolina Abril_Leigh Darby_Chris Diamond.mp4
    Format                      : MPEG-4
    Format profile              : Base Media
    Codec ID                    : isom (isom/iso2/avc1/mp41)
    File size                   : 3.44 GiB
    Duration                    : 38 min
    Overall bit rate            : 12.6 Mb/s
    Writing application         : Lavf55.1.100
    
    Video
    ID                          : 1
    Format                      : AVC
    Format/Info                 : Advanced Video Codec
    Format profile              : [email protected]
    Format settings, CABAC      : Yes
    Format settings, ReFrames   : 5 frames
    Codec ID                    : avc1
    Codec ID/Info               : Advanced Video Coding
    Duration                    : 38 min
    Bit rate                    : 12.0 Mb/s
    Width                       : 1 920 pixels
    Height                      : 1 080 pixels
    Display aspect ratio        : 16:9
    Frame rate mode             : Constant
    Frame rate                  : 23.976 (23976/1000) FPS
    Color space                 : YUV
    Chroma subsampling          : 4:2:0
    Bit depth                   : 8 bits
    Scan type                   : Progressive
    Bits/(Pixel*Frame)          : 0.241
    Stream size                 : 3.26 GiB (95%)
    Writing library             : x264 core 130 r2274 c832fe9
    Encoding settings           : cabac=1 / ref=5 / deblock=1:0:0 / analyse=0x3:0x113 / me=umh / subme=8 / psy=1 / psy_rd=1.00:0.00 / mixed_ref=1 / me_range=16 / chroma_me=1 / trellis=1 / 8x8dct=1 / cqm=0 / deadzone=21,11 / fast_pskip=1 / chroma_qp_offset=-2 / threads=36 / lookahead_threads=6 / sliced_threads=0 / nr=0 / decimate=1 / interlaced=0 / bluray_compat=0 / constrained_intra=0 / bframes=3 / b_pyramid=2 / b_adapt=2 / b_bias=0 / direct=3 / weightb=1 / open_gop=0 / weightp=2 / keyint=60 / keyint_min=6 / scenecut=40 / intra_refresh=0 / rc_lookahead=50 / rc=abr / mbtree=1 / bitrate=12000 / ratetol=1.0 / qcomp=0.60 / qpmin=0 / qpmax=69 / qpstep=4 / ip_ratio=1.40 / aq=1:1.00
    Language                    : English
    Tagged date                 : UTC 2015-10-19 21:42:55
    
    Audio
    ID                          : 2
    Format                      : AAC
    Format/Info                 : Advanced Audio Codec
    Format profile              : LC
    Codec ID                    : 40
    Duration                    : 38 min
    Duration_LastFrame          : 33 ms
    Bit rate mode               : Constant
    Bit rate                    : 128 kb/s
    Channel(s)                  : 2 channels
    Channel positions           : Front: L R
    Sampling rate               : 48.0 kHz
    Frame rate                  : 46.875 FPS (1024 spf)
    Compression mode            : Lossy
    Stream size                 : 35.7 MiB (1%)
    Language                    : English
    Default                     : Yes
    Alternate group             : 1
    Tagged date                 : UTC 2015-10-19 21:42:55
    
    Other #1
    ID                          : 65536
    Type                        : Hint
    Format                      : RTP
    Codec ID                    : rtp 
    Duration                    : 38 min
    Encoded date                : UTC 2015-10-19 21:42:44
    Tagged date                 : UTC 2015-10-19 21:42:55
    
    Other #2
    ID                          : 65537
    Type                        : Hint
    Format                      : RTP
    Codec ID                    : rtp 
    Duration                    : 38 min
    Encoded date                : UTC 2015-10-19 21:42:54
    Tagged date                 : UTC 2015-10-19 21:42:55
    Bit rate mode               : VBR
    
    Pass giải nén (Extract rar): Fc59ntS8
    Direct link:
    Mã:
    https://www.fshare.vn/file/XDRIY1W86XU7
     
    Santa77 and userone like this.
  18. noelhao

    noelhao Ultra HD4K Thành viên BQT

    Bài viết:
    6,240
    Đã được thích:
    1,063
    3rd Degree - School Girls Gone Black 2016 1080p WEB-DL

    [​IMG]

    Screenshot:


    [​IMG]

    Mediainfo:
    Mã:
    3rd Degree - School Girls Gone Black 2016 1080p WEB-DL.mp4
    Format                      : MPEG-4
    Format profile              : Base Media
    Codec ID                    : isom (isom/iso2/avc1/mp41)
    File size                   : 5.50 GiB
    Duration                    : 1 h 44 min
    Overall bit rate            : 7 530 kb/s
    Writing application         : Lavf57.21.101
    
    Video
    ID                          : 1
    Format                      : AVC
    Format/Info                 : Advanced Video Codec
    Format profile              : [email protected]
    Format settings, CABAC      : Yes
    Format settings, ReFrames   : 4 frames
    Codec ID                    : avc1
    Codec ID/Info               : Advanced Video Coding
    Duration                    : 1 h 44 min
    Bit rate                    : 7 425 kb/s
    Width                       : 1 920 pixels
    Height                      : 1 080 pixels
    Display aspect ratio        : 16:9
    Frame rate mode             : Variable
    Frame rate                  : 29.970 FPS
    Minimum frame rate          : 20.562 FPS
    Maximum frame rate          : 29.970 FPS
    Color space                 : YUV
    Chroma subsampling          : 4:2:0
    Bit depth                   : 8 bits
    Scan type                   : Progressive
    Bits/(Pixel*Frame)          : 0.119
    Stream size                 : 5.43 GiB (99%)
    Writing library             : x264 core 132
    Encoding settings           : cabac=1 / ref=3 / deblock=1:0:0 / analyse=0x3:0x113 / me=hex / subme=7 / psy=1 / psy_rd=1.00:0.00 / mixed_ref=1 / me_range=16 / chroma_me=1 / trellis=1 / 8x8dct=1 / cqm=0 / deadzone=21,11 / fast_pskip=1 / chroma_qp_offset=-2 / threads=12 / lookahead_threads=2 / sliced_threads=0 / nr=0 / decimate=1 / interlaced=0 / bluray_compat=0 / constrained_intra=0 / bframes=3 / b_pyramid=2 / b_adapt=1 / b_bias=0 / direct=1 / weightb=1 / open_gop=0 / weightp=2 / keyint=250 / keyint_min=25 / scenecut=40 / intra_refresh=0 / rc_lookahead=40 / rc=crf / mbtree=1 / crf=20.0 / qcomp=0.60 / qpmin=0 / qpmax=69 / qpstep=4 / ip_ratio=1.40 / aq=1:1.00
    
    Audio
    ID                          : 2
    Format                      : AAC
    Format/Info                 : Advanced Audio Codec
    Format profile              : LC
    Codec ID                    : 40
    Duration                    : 1 h 44 min
    Bit rate mode               : Constant
    Bit rate                    : 96.0 kb/s
    Channel(s)                  : 2 channels
    Channel positions           : Front: L R
    Sampling rate               : 48.0 kHz
    Frame rate                  : 46.875 FPS (1024 spf)
    Compression mode            : Lossy
    Stream size                 : 71.1 MiB (1%)
    Default                     : Yes
    Alternate group             : 1
    
    Pass giải nén (Extract rar): KorTBjFsA
    Direct link:
    Mã:
    https://www.fshare.vn/file/GAQNPB8UAOB6
     
    Santa77 thích bài này.
  19. noelhao

    noelhao Ultra HD4K Thành viên BQT

    Bài viết:
    6,240
    Đã được thích:
    1,063
    Elegant Angel - Lesbian Workout 2012 (Scene's Sunny Leone, Daisy Marie)1080p WEB-DL

    [​IMG]

    Screenshot:


    [​IMG]

    Mediainfo:
    Mã:
    Elegant Angel - Lesbian Workout 2012 (Scene's Sunny Leone, Daisy Marie)1080p WEB-DL.mp4
    Format                      : MPEG-4
    Format profile              : Base Media
    Codec ID                    : isom (isom/iso2/avc1/mp41)
    File size                   : 2.61 GiB
    Duration                    : 45 min
    Overall bit rate mode       : Variable
    Overall bit rate            : 8 118 kb/s
    Encoded date                : UTC 1970-01-01 00:00:00
    Tagged date                 : UTC 1970-01-01 00:00:00
    Writing application         : Lavf52.93.0
    
    Video
    ID                          : 1
    Format                      : AVC
    Format/Info                 : Advanced Video Codec
    Format profile              : [email protected]
    Format settings, CABAC      : Yes
    Format settings, ReFrames   : 4 frames
    Codec ID                    : avc1
    Codec ID/Info               : Advanced Video Coding
    Duration                    : 45 min
    Bit rate                    : 8 000 kb/s
    Width                       : 1 920 pixels
    Height                      : 1 080 pixels
    Display aspect ratio        : 16:9
    Frame rate mode             : Constant
    Frame rate                  : 29.970 (30000/1001) FPS
    Color space                 : YUV
    Chroma subsampling          : 4:2:0
    Bit depth                   : 8 bits
    Scan type                   : Progressive
    Bits/(Pixel*Frame)          : 0.129
    Stream size                 : 2.57 GiB (98%)
    Writing library             : x264 core 115
    Encoding settings           : cabac=1 / ref=3 / deblock=1:0:0 / analyse=0x3:0x113 / me=hex / subme=7 / psy=1 / psy_rd=1.00:0.00 / mixed_ref=1 / me_range=16 / chroma_me=1 / trellis=1 / 8x8dct=1 / cqm=0 / deadzone=21,11 / fast_pskip=1 / chroma_qp_offset=-2 / threads=16 / sliced_threads=0 / nr=0 / decimate=1 / interlaced=0 / bluray_compat=0 / constrained_intra=0 / bframes=3 / b_pyramid=2 / b_adapt=1 / b_bias=0 / direct=1 / weightb=1 / open_gop=0 / weightp=2 / keyint=250 / keyint_min=25 / scenecut=40 / intra_refresh=0 / rc_lookahead=40 / rc=abr / mbtree=1 / bitrate=8000 / ratetol=1.0 / qcomp=0.60 / qpmin=10 / qpmax=51 / qpstep=4 / ip_ratio=1.41 / aq=1:1.00
    Language                    : English
    Encoded date                : UTC 1970-01-01 00:00:00
    Tagged date                 : UTC 2012-05-22 08:06:45
    
    Audio
    ID                          : 2
    Format                      : AAC
    Format/Info                 : Advanced Audio Codec
    Format profile              : LC
    Codec ID                    : 40
    Duration                    : 45 min
    Bit rate mode               : Variable
    Bit rate                    : 124 kb/s
    Channel(s)                  : 2 channels
    Channel positions           : Front: L R
    Sampling rate               : 44.1 kHz
    Frame rate                  : 43.066 FPS (1024 spf)
    Compression mode            : Lossy
    Stream size                 : 40.7 MiB (2%)
    Language                    : English
    Encoded date                : UTC 1970-01-01 00:00:00
    Tagged date                 : UTC 2012-05-22 08:06:45
    
    Pass giải nén (Extract rar): HaYe7959
    Direct link:
    Mã:
    https://www.fshare.vn/file/57AKSY6NIAMY
     
    Santa77 thích bài này.
  20. noelhao

    noelhao Ultra HD4K Thành viên BQT

    Bài viết:
    6,240
    Đã được thích:
    1,063
    Evil Angel - Trans-Visions 8 2016 1080 WEB-DL

    [​IMG]

    Screenshot:


    [​IMG]

    Mediainfo:
    Mã:
    Evil Angel - Trans-Visions 8 2016 1080 WEB-DL.mp4
    Format                      : MPEG-4
    Format profile              : Base Media
    Codec ID                    : isom (isom/iso2/avc1/mp41)
    File size                   : 9.34 GiB
    Duration                    : 3 h 11 min
    Overall bit rate            : 6 989 kb/s
    Writing application         : Lavf57.19.100
    
    Video
    ID                          : 1
    Format                      : AVC
    Format/Info                 : Advanced Video Codec
    Format profile              : [email protected]
    Format settings, CABAC      : Yes
    Format settings, ReFrames   : 4 frames
    Codec ID                    : avc1
    Codec ID/Info               : Advanced Video Coding
    Duration                    : 3 h 11 min
    Bit rate                    : 6 800 kb/s
    Width                       : 1 920 pixels
    Height                      : 1 080 pixels
    Display aspect ratio        : 16:9
    Frame rate mode             : Variable
    Frame rate                  : 29.970 (29970/1000) FPS
    Minimum frame rate          : 12.606 FPS
    Maximum frame rate          : 29.970 FPS
    Color space                 : YUV
    Chroma subsampling          : 4:2:0
    Bit depth                   : 8 bits
    Scan type                   : Progressive
    Bits/(Pixel*Frame)          : 0.109
    Stream size                 : 9.07 GiB (97%)
    Writing library             : x264 core 148
    Encoding settings           : cabac=1 / ref=3 / deblock=1:0:0 / analyse=0x3:0x113 / me=umh / subme=7 / psy=1 / psy_rd=1.00:0.00 / mixed_ref=1 / me_range=16 / chroma_me=1 / trellis=1 / 8x8dct=1 / cqm=0 / deadzone=21,11 / fast_pskip=1 / chroma_qp_offset=-2 / threads=34 / lookahead_threads=5 / sliced_threads=0 / nr=0 / decimate=1 / interlaced=0 / bluray_compat=0 / constrained_intra=0 / bframes=3 / b_pyramid=2 / b_adapt=1 / b_bias=0 / direct=1 / weightb=1 / open_gop=0 / weightp=2 / keyint=250 / keyint_min=25 / scenecut=40 / intra_refresh=0 / rc_lookahead=40 / rc=abr / mbtree=1 / bitrate=6800 / ratetol=1.0 / qcomp=0.60 / qpmin=0 / qpmax=69 / qpstep=4 / ip_ratio=1.40 / aq=1:1.00
    
    Audio
    ID                          : 2
    Format                      : AAC
    Format/Info                 : Advanced Audio Codec
    Format profile              : LC
    Codec ID                    : 40
    Duration                    : 3 h 11 min
    Bit rate mode               : Constant
    Bit rate                    : 192 kb/s
    Channel(s)                  : 2 channels
    Channel positions           : Front: L R
    Sampling rate               : 44.1 kHz
    Frame rate                  : 43.066 FPS (1024 spf)
    Compression mode            : Lossy
    Stream size                 : 263 MiB (3%)
    Default                     : Yes
    Alternate group             : 1
    
    Pass giải nén (Extract rar): cVWDTXA2
    Direct link:
    Mã:
    https://www.fshare.vn/file/6VOFVTAKT2KG
     
    Santa77 thích bài này.
Đang tải...
Similar Threads Diễn đàn Date
[Fshare] BST Brazzers - Naughty America - vv Phim Sex Âu Mỹ - Western Porn - Direct Fast Link Thứ bảy lúc 13:08

Chia sẻ trang này