1. Hiện tại có nhiều bạn ko nhận được Email kích hoạt từ hệ thống, BQT đã rà soát và thấy đa số các trường hợp này dùng GMAIL. Trong thời gian chờ khắc phục, các bạn có thể tạm dùng các email khác để đăng ký và nhận email kích hoạt ( Yahoo, hotmail,....). Xin cảm ơn
    Dismiss Notice

Collections Movies DVD, HD 720p 1080p[Fshare]

Thảo luận trong 'Phim Sex Âu Mỹ - Western Porn - Direct Fast Link' bắt đầu bởi noelhao, 15/10/14.

  1. noelhao

    noelhao Ultra HD4K Thành viên BQT

    Bài viết:
    6,240
    Đã được thích:
    1,063
    Naughty America - Faye Reagan Pack WEB-DL

    [​IMG]

    [​IMG]

    Screenshot:


    [​IMG]

    Mediainfo:
    Mã:
    Naughty America - Faye Reagan Pack\Naughty America - Faye Reagan, Anthony Rosano In I Have a Wife 2012.mp4
    Format                      : MPEG-4
    Format profile              : Base Media
    Codec ID                    : isom (isom/iso2/avc1/mp41)
    File size                   : 1.25 GiB
    Duration                    : 35 min
    Overall bit rate mode       : Variable
    Overall bit rate            : 5 118 kb/s
    Encoded date                : UTC 2012-09-17 20:49:58
    Tagged date                 : UTC 2012-09-17 20:49:58
    Writing application         : Lavf53.32.100
    
    Video
    ID                          : 1
    Format                      : AVC
    Format/Info                 : Advanced Video Codec
    Format profile              : [email protected]
    Format settings, CABAC      : Yes
    Format settings, ReFrames   : 4 frames
    Codec ID                    : avc1
    Codec ID/Info               : Advanced Video Coding
    Duration                    : 35 min
    Bit rate                    : 5 000 kb/s
    Width                       : 1 920 pixels
    Height                      : 1 080 pixels
    Display aspect ratio        : 16:9
    Frame rate mode             : Constant
    Frame rate                  : 30.000 FPS
    Color space                 : YUV
    Chroma subsampling          : 4:2:0
    Bit depth                   : 8 bits
    Scan type                   : Progressive
    Bits/(Pixel*Frame)          : 0.080
    Stream size                 : 1.22 GiB (98%)
    Writing library             : x264 core 120
    Encoding settings           : cabac=1 / ref=4 / deblock=1:0:0 / analyse=0x3:0x113 / me=umh / subme=7 / psy=0 / mixed_ref=1 / me_range=16 / chroma_me=1 / trellis=1 / 8x8dct=1 / cqm=0 / deadzone=21,11 / fast_pskip=0 / chroma_qp_offset=0 / threads=8 / sliced_threads=0 / nr=0 / decimate=1 / interlaced=0 / bluray_compat=0 / constrained_intra=0 / bframes=16 / b_pyramid=2 / b_adapt=1 / b_bias=0 / direct=3 / weightb=1 / open_gop=0 / weightp=2 / keyint=300 / keyint_min=25 / scenecut=40 / intra_refresh=0 / rc=2pass / mbtree=0 / bitrate=5000 / ratetol=1.0 / qcomp=0.60 / qpmin=10 / qpmax=51 / qpstep=4 / cplxblur=20.0 / qblur=0.5 / ip_ratio=1.40 / pb_ratio=1.30 / aq=1:1.00
    Language                    : English
    Encoded date                : UTC 2012-09-17 20:49:58
    Tagged date                 : UTC 2012-09-17 20:49:58
    
    Audio
    ID                          : 2
    Format                      : AAC
    Format/Info                 : Advanced Audio Codec
    Format profile              : LC
    Codec ID                    : 40
    Duration                    : 35 min
    Bit rate mode               : Variable
    Bit rate                    : 109 kb/s
    Maximum bit rate            : 160 kb/s
    Channel(s)                  : 2 channels
    Channel positions           : Front: L R
    Sampling rate               : 48.0 kHz
    Frame rate                  : 46.875 FPS (1024 spf)
    Compression mode            : Lossy
    Stream size                 : 27.4 MiB (2%)
    Language                    : English
    Default                     : Yes
    Alternate group             : 1
    Encoded date                : UTC 2012-09-17 20:49:58
    Tagged date                 : UTC 2012-09-17 20:49:58
    
    Mã:
    Naughty America - Faye Reagan Pack\Naughty America - Faye Reagan, Ryan Driller In My Sister's Hot Friend 2012.mp4
    Format                      : MPEG-4
    Format profile              : Base Media
    Codec ID                    : isom (isom/iso2/avc1/mp41)
    File size                   : 1.06 GiB
    Duration                    : 29 min
    Overall bit rate            : 5 169 kb/s
    Encoded date                : UTC 2012-06-18 19:01:43
    Tagged date                 : UTC 2012-06-18 19:01:43
    Writing application         : Lavf53.32.100
    
    Video
    ID                          : 1
    Format                      : AVC
    Format/Info                 : Advanced Video Codec
    Format profile              : [email protected]
    Format settings, CABAC      : Yes
    Format settings, ReFrames   : 4 frames
    Codec ID                    : avc1
    Codec ID/Info               : Advanced Video Coding
    Duration                    : 29 min
    Bit rate                    : 5 000 kb/s
    Width                       : 1 920 pixels
    Height                      : 1 080 pixels
    Display aspect ratio        : 16:9
    Frame rate mode             : Constant
    Frame rate                  : 30.000 FPS
    Color space                 : YUV
    Chroma subsampling          : 4:2:0
    Bit depth                   : 8 bits
    Scan type                   : Progressive
    Bits/(Pixel*Frame)          : 0.080
    Stream size                 : 1.02 GiB (97%)
    Writing library             : x264 core 120
    Encoding settings           : cabac=1 / ref=4 / deblock=1:0:0 / analyse=0x3:0x113 / me=umh / subme=7 / psy=0 / mixed_ref=1 / me_range=16 / chroma_me=1 / trellis=1 / 8x8dct=1 / cqm=0 / deadzone=21,11 / fast_pskip=0 / chroma_qp_offset=0 / threads=8 / sliced_threads=0 / nr=0 / decimate=1 / interlaced=0 / bluray_compat=0 / constrained_intra=0 / bframes=16 / b_pyramid=2 / b_adapt=1 / b_bias=0 / direct=3 / weightb=1 / open_gop=0 / weightp=2 / keyint=300 / keyint_min=25 / scenecut=40 / intra_refresh=0 / rc=2pass / mbtree=0 / bitrate=5000 / ratetol=1.0 / qcomp=0.60 / qpmin=10 / qpmax=51 / qpstep=4 / cplxblur=20.0 / qblur=0.5 / ip_ratio=1.40 / pb_ratio=1.30 / aq=1:1.00
    Language                    : English
    Encoded date                : UTC 2012-06-18 19:01:43
    Tagged date                 : UTC 2012-06-18 19:01:43
    
    Audio
    ID                          : 2
    Format                      : AAC
    Format/Info                 : Advanced Audio Codec
    Format profile              : LC
    Codec ID                    : 40
    Duration                    : 29 min
    Bit rate mode               : Constant
    Bit rate                    : 159 kb/s
    Channel(s)                  : 2 channels
    Channel positions           : Front: L R
    Sampling rate               : 48.0 kHz
    Frame rate                  : 46.875 FPS (1024 spf)
    Compression mode            : Lossy
    Stream size                 : 33.4 MiB (3%)
    Language                    : English
    Default                     : Yes
    Alternate group             : 1
    Encoded date                : UTC 2012-06-18 19:01:43
    Tagged date                 : UTC 2012-06-18 19:01:43
    Mã:
    Naughty America - Faye Reagan Pack\Naughty America - Faye Reagan, Bill Bailey In Naughty Rich Girls 2011.mp4
    Format                      : MPEG-4
    Format profile              : Base Media / Version 2
    Codec ID                    : mp42 (mp42/iso2/isom/avc1)
    File size                   : 637 MiB
    Duration                    : 27 min
    Overall bit rate            : 3 213 kb/s
    Encoded date                : UTC 2011-03-22 13:01:05
    Tagged date                 : UTC 2011-03-22 13:01:05
    
    Video
    ID                          : 1
    Format                      : AVC
    Format/Info                 : Advanced Video Codec
    Format profile              : [email protected]
    Format settings, CABAC      : No
    Format settings, ReFrames   : 2 frames
    Codec ID                    : avc1
    Codec ID/Info               : Advanced Video Coding
    Duration                    : 27 min
    Bit rate                    : 3 000 kb/s
    Width                       : 768 pixels
    Height                      : 432 pixels
    Display aspect ratio        : 16:9
    Frame rate mode             : Constant
    Frame rate                  : 29.970 (30000/1001) FPS
    Color space                 : YUV
    Chroma subsampling          : 4:2:0
    Bit depth                   : 8 bits
    Scan type                   : Progressive
    Bits/(Pixel*Frame)          : 0.302
    Stream size                 : 594 MiB (93%)
    Language                    : English
    Encoded date                : UTC 2011-03-22 13:01:05
    Tagged date                 : UTC 2011-03-22 13:01:05
    
    Audio
    ID                          : 2
    Format                      : AAC
    Format/Info                 : Advanced Audio Codec
    Format profile              : LC
    Codec ID                    : 40
    Duration                    : 27 min
    Source duration             : 27 min
    Bit rate mode               : Constant
    Bit rate                    : 66.2 kb/s
    Channel(s)                  : 2 channels
    Channel positions           : Front: L R
    Sampling rate               : 44.1 kHz
    Frame rate                  : 43.066 FPS (1024 spf)
    Compression mode            : Lossy
    Stream size                 : 13.4 MiB (2%)
    Source stream size          : 13.4 MiB (2%)
    Language                    : English
    Encoded date                : UTC 2011-03-22 13:01:05
    Tagged date                 : UTC 2011-03-22 13:01:05
    
    Other #1
    ID                          : 65537
    Type                        : Hint
    Format                      : RTP
    Codec ID                    : rtp 
    Duration                    : 27 min
    Language                    : English
    Encoded date                : UTC 2011-03-22 13:01:05
    Tagged date                 : UTC 2011-03-22 13:01:05
    Source duration             : 1662494
    Source frame count          : 49825
    Source stream size          : 27853044
    Stream size                 : 27853044
    
    Other #2
    ID                          : 65538
    Type                        : Hint
    Format                      : RTP
    Codec ID                    : rtp 
    Duration                    : 27 min
    Language                    : English
    Encoded date                : UTC 2011-03-22 13:01:05
    Tagged date                 : UTC 2011-03-22 13:01:05
    Source duration             : 1662502
    Source frame count          : 11935
    Source stream size          : 1527488
    Stream size                 : 1527488
    Bit rate mode               : VBR
    Mã:
    Naughty America - Faye Reagan Pack\Naughty America - Faye Reagan, Marie McCray, Ramon Nomar 2012.mp4
    Format                      : MPEG-4
    Format profile              : Base Media / Version 2
    Codec ID                    : mp42 (mp42/iso2/isom/avc1)
    File size                   : 656 MiB
    Duration                    : 28 min
    Overall bit rate            : 3 206 kb/s
    Encoded date                : UTC 2012-02-04 11:51:32
    Tagged date                 : UTC 2012-02-04 11:51:32
    
    Video
    ID                          : 1
    Format                      : AVC
    Format/Info                 : Advanced Video Codec
    Format profile              : [email protected]
    Format settings, CABAC      : No
    Format settings, ReFrames   : 2 frames
    Codec ID                    : avc1
    Codec ID/Info               : Advanced Video Coding
    Duration                    : 28 min
    Bit rate                    : 3 000 kb/s
    Width                       : 768 pixels
    Height                      : 432 pixels
    Display aspect ratio        : 16:9
    Frame rate mode             : Constant
    Frame rate                  : 29.970 (30000/1001) FPS
    Color space                 : YUV
    Chroma subsampling          : 4:2:0
    Bit depth                   : 8 bits
    Scan type                   : Progressive
    Bits/(Pixel*Frame)          : 0.302
    Stream size                 : 612 MiB (93%)
    Language                    : English
    Encoded date                : UTC 2012-02-04 11:51:32
    Tagged date                 : UTC 2012-02-04 11:51:32
    
    Audio
    ID                          : 2
    Format                      : AAC
    Format/Info                 : Advanced Audio Codec
    Format profile              : LC
    Codec ID                    : 40
    Duration                    : 28 min
    Source duration             : 28 min
    Bit rate mode               : Constant
    Bit rate                    : 66.2 kb/s
    Channel(s)                  : 2 channels
    Channel positions           : Front: L R
    Sampling rate               : 44.1 kHz
    Frame rate                  : 43.066 FPS (1024 spf)
    Compression mode            : Lossy
    Stream size                 : 13.8 MiB (2%)
    Source stream size          : 13.8 MiB (2%)
    Language                    : English
    Encoded date                : UTC 2012-02-04 11:51:32
    Tagged date                 : UTC 2012-02-04 11:51:32
    
    Other #1
    ID                          : 65537
    Type                        : Hint
    Format                      : RTP
    Codec ID                    : rtp 
    Duration                    : 28 min
    Language                    : English
    Encoded date                : UTC 2012-02-04 11:51:32
    Tagged date                 : UTC 2012-02-04 11:51:32
    
    Other #2
    ID                          : 65538
    Type                        : Hint
    Format                      : RTP
    Codec ID                    : rtp 
    Duration                    : 28 min
    Language                    : English
    Encoded date                : UTC 2012-02-04 11:51:32
    Tagged date                 : UTC 2012-02-04 11:51:32
    Source duration             : 1717069
    Source frame count          : 12330
    Source stream size          : 1577728
    Stream size                 : 1577728
    Bit rate mode               : VBR
    Pass giải nén (Extract rar): Sn7182Rn
    Direct link:
    Mã:
    https://www.fshare.vn/file/MF1KHHPSLCO3
     
    hieu-dinh and Santa77 like this.
  2. noelhao

    noelhao Ultra HD4K Thành viên BQT

    Bài viết:
    6,240
    Đã được thích:
    1,063
    Sunny Leone 2012-2013 (Solo) 1080p XXX Pack

    [​IMG]

    Screenshot:


    [​IMG][​IMG][​IMG][​IMG][​IMG]

    Pass giải nén (Extract rar): 34815742
    Direct link:
    Mã:
    https://www.fshare.vn/file/YWF2P7JVHGLD


     
    Santa77 and Thất Tình like this.
  3. noelhao

    noelhao Ultra HD4K Thành viên BQT

    Bài viết:
    6,240
    Đã được thích:
    1,063
    Vivid - Sunny Leone Goddess 2012 1080p WEB-DL

    [​IMG]

    Screenshot:


    [​IMG]

    Mediainfo:
    Mã:
    Vivid - Sunny Leone Goddess 2012 1080p WEB-DL.mp4
    Format                      : MPEG-4
    Format profile              : Base Media / Version 2
    Codec ID                    : mp42 (isom/mp42)
    File size                   : 5.05 GiB
    Duration                    : 1 h 56 min
    Overall bit rate mode       : Variable
    Overall bit rate            : 6 189 kb/s
    Encoded date                : UTC 2012-03-07 12:23:58
    Tagged date                 : UTC 2012-03-07 12:23:58
    
    Video
    ID                          : 1
    Format                      : AVC
    Format/Info                 : Advanced Video Codec
    Format profile              : [email protected]
    Format settings, CABAC      : Yes
    Format settings, ReFrames   : 5 frames
    Codec ID                    : avc1
    Codec ID/Info               : Advanced Video Coding
    Duration                    : 1 h 56 min
    Source duration             : 1 h 56 min
    Bit rate mode               : Constant
    Bit rate                    : 6 000 kb/s
    Width                       : 1 920 pixels
    Height                      : 1 080 pixels
    Display aspect ratio        : 16:9
    Frame rate                  : 29.970 (30000/1001) FPS
    Standard                    : Component
    Color space                 : YUV
    Chroma subsampling          : 4:2:0
    Bit depth                   : 8 bits
    Scan type                   : Progressive
    Bits/(Pixel*Frame)          : 0.097
    Stream size                 : 4.89 GiB (97%)
    Source stream size          : 4.89 GiB (97%)
    Language                    : English
    Encoded date                : UTC 2012-03-07 12:23:58
    Tagged date                 : UTC 2012-03-07 12:23:58
    Color range                 : Limited
    mdhd_Duration               : 7003804
    
    Audio
    ID                          : 2
    Format                      : AAC
    Format/Info                 : Advanced Audio Codec
    Format profile              : LC
    Codec ID                    : 40
    Duration                    : 1 h 56 min
    Bit rate mode               : Variable
    Bit rate                    : 187 kb/s
    Maximum bit rate            : 307 kb/s
    Channel(s)                  : 2 channels
    Channel positions           : Front: L R
    Sampling rate               : 48.0 kHz
    Frame rate                  : 46.875 FPS (1024 spf)
    Compression mode            : Lossy
    Stream size                 : 156 MiB (3%)
    Language                    : English
    Encoded date                : UTC 2012-03-07 12:23:58
    Tagged date                 : UTC 2012-03-07 12:23:58
    
    Pass giải nén (Extract rar): HbaT7497
    Direct link:
    Mã:
    https://www.fshare.vn/file/B7S3P57E3X6Q
     
    Santa77 and Thất Tình like this.
  4. noelhao

    noelhao Ultra HD4K Thành viên BQT

    Bài viết:
    6,240
    Đã được thích:
    1,063
    Vivid - Undress Me 2009 BDrip 720p.x264-wde

    [​IMG]

    Screenshot:


    [​IMG]

    Mediainfo:
    Mã:
    Vivid - Undress Me 2009 BDrip 720p.x264-wde.mkv
    Format                      : Matroska
    Format version              : Version 2
    File size                   : 7.96 GiB
    Duration                    : 2 h 50 min
    Overall bit rate            : 6 664 kb/s
    Encoded date                : UTC 2009-07-20 06:58:59
    Writing application         : mkvmerge v2.9.7 ('Tenderness') built on Jul  1 2009 18:43:35
    Writing library             : libebml v0.7.7 + libmatroska v0.8.1
    
    Video
    ID                          : 1
    Format                      : AVC
    Format/Info                 : Advanced Video Codec
    Format profile              : [email protected]
    Format settings, CABAC      : Yes
    Format settings, ReFrames   : 4 frames
    Codec ID                    : V_MPEG4/ISO/AVC
    Duration                    : 2 h 50 min
    Bit rate                    : 6 470 kb/s
    Width                       : 1 280 pixels
    Height                      : 720 pixels
    Display aspect ratio        : 16:9
    Frame rate mode             : Constant
    Frame rate                  : 29.970 (30000/1001) FPS
    Original frame rate         : 29.970 (29970/1000) FPS
    Color space                 : YUV
    Chroma subsampling          : 4:2:0
    Bit depth                   : 8 bits
    Scan type                   : Progressive
    Bits/(Pixel*Frame)          : 0.234
    Stream size                 : 7.57 GiB (95%)
    Writing library             : x264 core 68 r1183M f21daff
    Encoding settings           : cabac=1 / ref=4 / deblock=1:0:0 / analyse=0x3:0x133 / me=umh / subme=7 / psy_rd=1.0:0.0 / mixed_ref=1 / me_range=16 / chroma_me=0 / trellis=2 / 8x8dct=1 / cqm=0 / deadzone=21,11 / chroma_qp_offset=-2 / threads=6 / nr=0 / decimate=1 / mbaff=0 / bframes=5 / b_pyramid=1 / b_adapt=2 / b_bias=0 / direct=2 / wpredb=1 / keyint=250 / keyint_min=25 / scenecut=40 / rc=2pass / bitrate=6470 / ratetol=1.0 / qcomp=0.60 / qpmin=10 / qpmax=51 / qpstep=4 / cplxblur=20.0 / qblur=0.5 / ip_ratio=1.40 / pb_ratio=1.30 / aq=1:1.00
    Language                    : English
    Default                     : Yes
    Forced                      : No
    
    Audio
    ID                          : 2
    Format                      : AC-3
    Format/Info                 : Audio Coding 3
    Mode extension              : CM (complete main)
    Format settings, Endianness : Big
    Codec ID                    : A_AC3
    Duration                    : 2 h 50 min
    Bit rate mode               : Constant
    Bit rate                    : 192 kb/s
    Channel(s)                  : 2 channels
    Channel positions           : Front: L R
    Sampling rate               : 48.0 kHz
    Frame rate                  : 31.250 FPS (1536 spf)
    Compression mode            : Lossy
    Stream size                 : 235 MiB (3%)
    Language                    : English
    Default                     : Yes
    Forced                      : No
    
    Pass giải nén (Extract rar): LStW9143
    Direct link:
    Mã:
    https://www.fshare.vn/file/O21LPI74OUVN
     
    Santa77 and Thất Tình like this.
  5. noelhao

    noelhao Ultra HD4K Thành viên BQT

    Bài viết:
    6,240
    Đã được thích:
    1,063
    Em Sunny Leon thì mình hết phim rồi, còn nợ AE vài phim Allyssa Hall, Madison Ivy, Lexi Belle và phim ở prettydirty.com. BẬN QUÁ, VÀI HÔM NỮA MÌNH POST TIẾP.
     
    galaxy91, Thất Tình and vanhung85 like this.
  6. noelhao

    noelhao Ultra HD4K Thành viên BQT

    Bài viết:
    6,240
    Đã được thích:
    1,063
    Sorry mọi người, hổm rày bận đi công tác suốt, chưa có thời gian post phim tiếp cho AE. Sẽ tranh thủ!
     
  7. simplythebest

    simplythebest Xem Sex Lần Đầu Verified

    Bài viết:
    30
    Đã được thích:
    7
    bác có phim của Sylvia Saint thì cho em xin ah
     
  8. noelhao

    noelhao Ultra HD4K Thành viên BQT

    Bài viết:
    6,240
    Đã được thích:
    1,063
    Em này xưa rồi (sinh 1976), toàn DVD thôi. Mà giờ lâu quá mình cũng chả nhớ tựa phim. Nếu nhớ không lầm em nó là pornstar của Private. Từ năm 2007, ẻm chỉ đóng vai chính và biểu diễn trong các bộ phim tình dục đồng tính nữ, bạn thử google tìm xem tên phim cụ thể rồi yêu cầu, mình có thể lục tìm lại.
     
  9. noelhao

    noelhao Ultra HD4K Thành viên BQT

    Bài viết:
    6,240
    Đã được thích:
    1,063
    Digital Playground - Cockasian 2006 HDDVD 1080p Remux AC3

    [​IMG]

    Screenshot:


    [​IMG]

    Mediainfo:
    Mã:
    Digital Playground - Cockasian 2006 HDDVD 1080p Remux AC3 Camelot.mkv
    Format                      : Matroska
    Format version              : Version 1
    File size                   : 9.88 GiB
    Duration                    : 2 h 15 min
    Overall bit rate mode       : Variable
    Overall bit rate            : 10.4 Mb/s
    Movie name                  : *HDTPORNO.ORG*HDDVDRemux*Camelot*
    Encoded date                : UTC 2009-11-26 10:29:18
    Writing application         : mkvmerge v2.0.2 ('You're My Flame') built on Feb 21 2007 23:40:55
    Writing library             : libebml v0.7.7 + libmatroska v0.8.1
    
    Video
    ID                          : 1
    Format                      : AVC
    Format/Info                 : Advanced Video Codec
    Format profile              : [email protected]
    Format settings, CABAC      : Yes
    Format settings, ReFrames   : 4 frames
    Muxing mode                 : Container [email protected]
    Codec ID                    : V_MPEG4/ISO/AVC
    Duration                    : 2 h 15 min
    Bit rate mode               : Variable
    Bit rate                    : 9 793 kb/s
    Maximum bit rate            : 15.0 Mb/s
    Width                       : 1 440 pixels
    Height                      : 1 080 pixels
    Display aspect ratio        : 16:9
    Frame rate mode             : Constant
    Frame rate                  : 29.970 (30000/1001) FPS
    Standard                    : NTSC
    Color space                 : YUV
    Chroma subsampling          : 4:2:0
    Bit depth                   : 8 bits
    Scan type                   : Progressive
    Bits/(Pixel*Frame)          : 0.210
    Stream size                 : 9.26 GiB (94%)
    Title                       : Video-fail-
    Default                     : Yes
    Forced                      : No
    Color range                 : Limited
    Color primaries             : BT.709
    Transfer characteristics    : BT.709
    Matrix coefficients         : BT.709
    
    Audio
    ID                          : 2
    Format                      : AC-3
    Format/Info                 : Audio Coding 3
    Mode extension              : CM (complete main)
    Format settings, Endianness : Big
    Codec ID                    : A_AC3
    Duration                    : 2 h 15 min
    Bit rate mode               : Constant
    Bit rate                    : 448 kb/s
    Channel(s)                  : 6 channels
    Channel positions           : Front: L C R, Side: L R, LFE
    Sampling rate               : 48.0 kHz
    Frame rate                  : 31.250 FPS (1536 spf)
    Compression mode            : Lossy
    Stream size                 : 434 MiB (4%)
    Title                       : Audio-fail-
    Language                    : English
    Default                     : Yes
    Forced                      : No
    
    Menu
    00:00:00.000                : en:Chapter 1
    00:01:52.133                : en:Chapter 2
    00:07:21.150                : en:Chapter 3
    00:10:19.350                : en:Chapter 4
    00:26:03.216                : en:Chapter 5
    00:36:50.216                : en:Chapter 6
    00:45:31.216                : en:Chapter 7
    00:52:48.000                : en:Chapter 8
    00:55:44.150                : en:Chapter 9
    01:10:58.150                : en:Chapter 10
    01:15:23.150                : en:Chapter 11
    01:19:30.216                : en:Chapter 12
    01:23:01.350                : en:Chapter 13
    01:33:44.150                : en:Chapter 14
    01:47:51.066                : en:Chapter 15
    01:51:36.000                : en:Chapter 16
    01:57:15.216                : en:Chapter 17
    02:00:53.433                : en:Chapter 18
    
    Pass giải nén (Extract rar):
    Direct link:
    Mã:
    https://www.fshare.vn/file/HS7CUWT2I4Q5
     
    Santa77 thích bài này.
  10. noelhao

    noelhao Ultra HD4K Thành viên BQT

    Bài viết:
    6,240
    Đã được thích:
    1,063
    Digital Playground - Dear Diary 2013 Bluray 1080px264

    [​IMG]

    Screenshot:


    [​IMG]

    Mediainfo:
    Mã:
    Digital Playground - Dear Diary 2013 Bluray 1080px264.mkv
    Format                      : Matroska
    Format version              : Version 2
    File size                   : 8.74 GiB
    Duration                    : 2 h 1 min
    Overall bit rate            : 10.3 Mb/s
    Writing application         : mkvmerge v4.1.1 ('Bouncin' Back') built on Jul  3 2010 22:54:08
    Writing library             : libebml v1.0.0 + libmatroska v1.0
    
    Video
    ID                          : 1
    Format                      : AVC
    Format/Info                 : Advanced Video Codec
    Format profile              : [email protected]
    Format settings, CABAC      : Yes
    Format settings, ReFrames   : 4 frames
    Codec ID                    : V_MPEG4/ISO/AVC
    Duration                    : 2 h 1 min
    Bit rate                    : 9 878 kb/s
    Width                       : 1 920 pixels
    Height                      : 1 080 pixels
    Display aspect ratio        : 16:9
    Frame rate mode             : Constant
    Frame rate                  : 23.976 (24000/1001) FPS
    Color space                 : YUV
    Chroma subsampling          : 4:2:0
    Bit depth                   : 8 bits
    Scan type                   : Progressive
    Bits/(Pixel*Frame)          : 0.199
    Stream size                 : 8.19 GiB (94%)
    Writing library             : x264 core 138 r2358kMod 9e941d1
    Encoding settings           : cabac=1 / ref=4 / deblock=1:-3:-3 / analyse=0x3:0x133 / me=umh / subme=8 / psy=1 / fade_compensate=0.00 / psy_rd=1.00:0.15 / mixed_ref=1 / me_range=16 / chroma_me=1 / trellis=1 / 8x8dct=1 / cqm=0 / deadzone=21,11 / fast_pskip=0 / chroma_qp_offset=-3 / threads=12 / lookahead_threads=2 / sliced_threads=0 / nr=0 / decimate=1 / interlaced=0 / bluray_compat=0 / constrained_intra=0 / bframes=3 / b_pyramid=2 / b_adapt=2 / b_bias=0 / direct=3 / weightb=1 / open_gop=0 / weightp=2 / keyint=240 / keyint_min=23 / scenecut=40 / intra_refresh=0 / rc_lookahead=50 / rc=2pass / mbtree=1 / bitrate=9878 / ratetol=1.0 / qcomp=0.60 / qpmin=0 / qpmax=69 / qpstep=4 / cplxblur=20.0 / qblur=0.5 / ip_ratio=1.40 / aq=1:1.00
    Language                    : English
    Default                     : Yes
    Forced                      : No
    
    Audio
    ID                          : 2
    Format                      : AC-3
    Format/Info                 : Audio Coding 3
    Mode extension              : CM (complete main)
    Format settings, Endianness : Big
    Codec ID                    : A_AC3
    Duration                    : 2 h 1 min
    Bit rate mode               : Constant
    Bit rate                    : 448 kb/s
    Channel(s)                  : 6 channels
    Channel positions           : Front: L C R, Side: L R, LFE
    Sampling rate               : 48.0 kHz
    Frame rate                  : 31.250 FPS (1536 spf)
    Compression mode            : Lossy
    Stream size                 : 388 MiB (4%)
    Title                       : AC3
    Language                    : English
    Default                     : Yes
    Forced                      : No
    
    Menu
    00:00:00.000                : en:00:00:00.000
    00:02:34.029                : en:00:02:34.029
    00:10:38.721                : en:00:10:38.721
    00:18:53.132                : en:00:18:53.132
    00:23:34.413                : en:00:23:34.413
    00:26:39.306                : en:00:26:39.306
    00:30:46.428                : en:00:30:46.428
    00:41:55.930                : en:00:41:55.930
    00:47:36.270                : en:00:47:36.270
    00:54:40.986                : en:00:54:40.986
    00:59:21.266                : en:00:59:21.266
    01:06:14.596                : en:01:06:14.596
    01:14:20.456                : en:01:14:20.456
    01:16:01.557                : en:01:16:01.557
    01:21:04.860                : en:01:21:04.860
    01:30:21.541                : en:01:30:21.541
    01:41:44.098                : en:01:41:44.098
    01:45:14.892                : en:01:45:14.892
    01:57:37.926                : en:01:57:37.926
    
    Pass giải nén (Extract rar):
    Direct link:
    Mã:
    https://www.fshare.vn/file/8CSQZG4TK19V
     
    Santa77 thích bài này.
  11. noelhao

    noelhao Ultra HD4K Thành viên BQT

    Bài viết:
    6,240
    Đã được thích:
    1,063
    Digital Playground - Deeper 2 2006 HDDVD 720p.x264-CtrlHD

    [​IMG]

    Screenshot:


    [​IMG]

    Mediainfo:
    Mã:
    Digital Playground - Deeper 2 2006 HDDVD 720p.x264-CtrlHD.mkv
    Format                      : Matroska
    Format version              : Version 1
    File size                   : 4.37 GiB
    Duration                    : 1 h 34 min
    Overall bit rate            : 6 652 kb/s
    Encoded date                : UTC 2008-03-05 10:55:24
    Writing application         : mkvmerge v2.1.0 ('Another Place To Fall') built on Aug 19 2007 13:40:07
    Writing library             : libebml v0.7.7 + libmatroska v0.8.1
    
    Video
    ID                          : 1
    Format                      : AVC
    Format/Info                 : Advanced Video Codec
    Format profile              : [email protected]
    Format settings, CABAC      : Yes
    Format settings, ReFrames   : 5 frames
    Format settings, GOP        : N=1
    Codec ID                    : V_MPEG4/ISO/AVC
    Duration                    : 1 h 34 min
    Bit rate                    : 6 200 kb/s
    Width                       : 1 280 pixels
    Height                      : 720 pixels
    Display aspect ratio        : 16:9
    Frame rate mode             : Constant
    Frame rate                  : 29.970 (29970/1000) FPS
    Color space                 : YUV
    Chroma subsampling          : 4:2:0
    Bit depth                   : 8 bits
    Scan type                   : Progressive
    Bits/(Pixel*Frame)          : 0.224
    Stream size                 : 3.99 GiB (91%)
    Title                       : 1280x720 @ 6200 Kbps
    Writing library             : x264 core 58 svn-736M
    Encoding settings           : cabac=1 / ref=5 / deblock=1:-3:-3 / analyse=0x3:0x133 / me=umh / subme=7 / me-prepass=0 / brdo=1 / mixed_ref=1 / me_range=16 / chroma_me=1 / trellis=1 / 8x8dct=1 / cqm=2 / deadzone=21,11 / chroma_qp_offset=0 / threads=6 / nr=0 / decimate=1 / mbaff=0 / bframes=3 / b_pyramid=1 / b_adapt=1 / b_bias=0 / direct=1 / wpredb=1 / bime=1 / keyint=250 / keyint_min=25 / scenecut=40(pre) / rc=2pass / bitrate=6200 / ratetol=1.0 / rceq='blurCplx^(1-qComp)' / qcomp=1.00 / qpmin=10 / qpmax=51 / qpstep=4 / cplxblur=20.0 / qblur=0.5 / ip_ratio=1.40 / pb_ratio=1.30 / aq=1:0.5:13.0
    Language                    : English
    Default                     : Yes
    Forced                      : No
    
    Audio
    ID                          : 2
    Format                      : AC-3
    Format/Info                 : Audio Coding 3
    Mode extension              : CM (complete main)
    Format settings, Endianness : Big
    Codec ID                    : A_AC3
    Duration                    : 1 h 34 min
    Bit rate mode               : Constant
    Bit rate                    : 448 kb/s
    Channel(s)                  : 6 channels
    Channel positions           : Front: L C R, Side: L R, LFE
    Sampling rate               : 48.0 kHz
    Frame rate                  : 31.250 FPS (1536 spf)
    Compression mode            : Lossy
    Stream size                 : 301 MiB (7%)
    Title                       : AC3 5.1 @ 448 Kbps
    Language                    : English
    Default                     : Yes
    Forced                      : No
    
    Pass giải nén (Extract rar):
    Direct link:
    Mã:
    https://www.fshare.vn/file/TAPFQ7GEB4EC
     
    Santa77 thích bài này.
  12. noelhao

    noelhao Ultra HD4K Thành viên BQT

    Bài viết:
    6,240
    Đã được thích:
    1,063
    Mofos.com - Blanche Bradburry - Mofos World Wide 05.25.2013 WEB-DL

    [​IMG]

    Screenshot:


    [​IMG]

    Mediainfo:
    Mã:
    Mofos.com - Blanche Bradburry - Mofos World Wide 05.25.2013.mp4
    Format                      : MPEG-4
    Format profile              : Base Media
    Codec ID                    : isom (isom/iso2/avc1/mp41)
    File size                   : 3.34 GiB
    Duration                    : 37 min
    Overall bit rate            : 12.7 Mb/s
    Writing application         : Lavf55.1.100
    
    Video
    ID                          : 1
    Format                      : AVC
    Format/Info                 : Advanced Video Codec
    Format profile              : [email protected]
    Format settings, CABAC      : Yes
    Format settings, ReFrames   : 5 frames
    Codec ID                    : avc1
    Codec ID/Info               : Advanced Video Coding
    Duration                    : 37 min
    Bit rate                    : 12.0 Mb/s
    Width                       : 1 920 pixels
    Height                      : 1 080 pixels
    Display aspect ratio        : 16:9
    Frame rate mode             : Constant
    Frame rate                  : 29.970 (29970/1000) FPS
    Color space                 : YUV
    Chroma subsampling          : 4:2:0
    Bit depth                   : 8 bits
    Scan type                   : Progressive
    Bits/(Pixel*Frame)          : 0.193
    Stream size                 : 3.17 GiB (95%)
    Writing library             : x264 core 130 r2274 c832fe9
    Encoding settings           : cabac=1 / ref=5 / deblock=1:0:0 / analyse=0x3:0x113 / me=umh / subme=8 / psy=1 / psy_rd=1.00:0.00 / mixed_ref=1 / me_range=16 / chroma_me=1 / trellis=1 / 8x8dct=1 / cqm=0 / deadzone=21,11 / fast_pskip=1 / chroma_qp_offset=-2 / threads=36 / lookahead_threads=6 / sliced_threads=0 / nr=0 / decimate=1 / interlaced=0 / bluray_compat=0 / constrained_intra=0 / bframes=3 / b_pyramid=2 / b_adapt=2 / b_bias=0 / direct=3 / weightb=1 / open_gop=0 / weightp=2 / keyint=60 / keyint_min=6 / scenecut=40 / intra_refresh=0 / rc_lookahead=50 / rc=abr / mbtree=1 / bitrate=12000 / ratetol=1.0 / qcomp=0.60 / qpmin=0 / qpmax=69 / qpstep=4 / ip_ratio=1.40 / aq=1:1.00
    Tagged date                 : UTC 2013-05-15 04:51:08
    
    Audio
    ID                          : 2
    Format                      : AAC
    Format/Info                 : Advanced Audio Codec
    Format profile              : LC
    Codec ID                    : 40
    Duration                    : 37 min
    Duration_LastFrame          : 33 ms
    Bit rate mode               : Constant
    Bit rate                    : 128 kb/s
    Channel(s)                  : 2 channels
    Channel positions           : Front: L R
    Sampling rate               : 48.0 kHz
    Frame rate                  : 46.875 FPS (1024 spf)
    Compression mode            : Lossy
    Stream size                 : 34.6 MiB (1%)
    Default                     : Yes
    Alternate group             : 1
    Tagged date                 : UTC 2013-05-15 04:51:08
    
    Other #1
    ID                          : 65536
    Type                        : Hint
    Format                      : RTP
    Codec ID                    : rtp
    Duration                    : 37 min
    Encoded date                : UTC 2013-05-15 04:50:59
    Tagged date                 : UTC 2013-05-15 04:51:08
    
    Other #2
    ID                          : 65537
    Type                        : Hint
    Format                      : RTP
    Codec ID                    : rtp
    Duration                    : 37 min
    Encoded date                : UTC 2013-05-15 04:51:06
    Tagged date                 : UTC 2013-05-15 04:51:08
    Bit rate mode               : VBR
    Pass giải nén (Extract rar): 24916788
    Direct link:
    Mã:
    https://www.fshare.vn/file/MQH1B928NESG
     
    hieu-dinh, Santa77 and yêulầuxanh like this.
  13. noelhao

    noelhao Ultra HD4K Thành viên BQT

    Bài viết:
    6,240
    Đã được thích:
    1,063
    BRAZZERS - 115 - My Wife's Boss 2015 - Cherie Deville_Johnny Sins 1080p WEB-DL

    [​IMG]

    Screenshot:


    [​IMG]

    Mediainfo:
    Mã:
    115 - My Wife's Boss 2015 - Cherie Deville_Johnny Sins.mp4
    Format                      : MPEG-4
    Format profile              : Base Media
    Codec ID                    : isom (isom/iso2/avc1/mp41)
    File size                   : 3.04 GiB
    Duration                    : 34 min
    Overall bit rate            : 12.6 Mb/s
    Writing application         : Lavf55.1.100
    
    Video
    ID                          : 1
    Format                      : AVC
    Format/Info                 : Advanced Video Codec
    Format profile              : [email protected]
    Format settings, CABAC      : Yes
    Format settings, ReFrames   : 5 frames
    Codec ID                    : avc1
    Codec ID/Info               : Advanced Video Coding
    Duration                    : 34 min
    Bit rate                    : 12.0 Mb/s
    Width                       : 1 920 pixels
    Height                      : 1 080 pixels
    Display aspect ratio        : 16:9
    Frame rate mode             : Constant
    Frame rate                  : 29.970 (29970/1000) FPS
    Color space                 : YUV
    Chroma subsampling          : 4:2:0
    Bit depth                   : 8 bits
    Scan type                   : Progressive
    Bits/(Pixel*Frame)          : 0.193
    Stream size                 : 2.89 GiB (95%)
    Writing library             : x264 core 130 r2274 c832fe9
    Encoding settings           : cabac=1 / ref=5 / deblock=1:0:0 / analyse=0x3:0x113 / me=umh / subme=8 / psy=1 / psy_rd=1.00:0.00 / mixed_ref=1 / me_range=16 / chroma_me=1 / trellis=1 / 8x8dct=1 / cqm=0 / deadzone=21,11 / fast_pskip=1 / chroma_qp_offset=-2 / threads=36 / lookahead_threads=6 / sliced_threads=0 / nr=0 / decimate=1 / interlaced=0 / bluray_compat=0 / constrained_intra=0 / bframes=3 / b_pyramid=2 / b_adapt=2 / b_bias=0 / direct=3 / weightb=1 / open_gop=0 / weightp=2 / keyint=60 / keyint_min=6 / scenecut=40 / intra_refresh=0 / rc_lookahead=50 / rc=abr / mbtree=1 / bitrate=12000 / ratetol=1.0 / qcomp=0.60 / qpmin=0 / qpmax=69 / qpstep=4 / ip_ratio=1.40 / aq=1:1.00
    Language                    : English
    Tagged date                 : UTC 2015-10-16 05:15:03
    
    Audio
    ID                          : 2
    Format                      : AAC
    Format/Info                 : Advanced Audio Codec
    Format profile              : LC
    Codec ID                    : 40
    Duration                    : 34 min
    Duration_LastFrame          : 33 ms
    Bit rate mode               : Constant
    Bit rate                    : 128 kb/s
    Channel(s)                  : 2 channels
    Channel positions           : Front: L R
    Sampling rate               : 48.0 kHz
    Frame rate                  : 46.875 FPS (1024 spf)
    Compression mode            : Lossy
    Stream size                 : 31.6 MiB (1%)
    Language                    : English
    Default                     : Yes
    Alternate group             : 1
    Tagged date                 : UTC 2015-10-16 05:15:03
    
    Other #1
    ID                          : 65536
    Type                        : Hint
    Format                      : RTP
    Codec ID                    : rtp 
    Duration                    : 34 min
    Encoded date                : UTC 2015-10-16 05:14:55
    Tagged date                 : UTC 2015-10-16 05:15:03
    
    Other #2
    ID                          : 65537
    Type                        : Hint
    Format                      : RTP
    Codec ID                    : rtp 
    Duration                    : 34 min
    Encoded date                : UTC 2015-10-16 05:15:02
    Tagged date                 : UTC 2015-10-16 05:15:03
    Bit rate mode               : VBR
    
    Pass giải nén (Extract rar): Ve9170Go
    Direct link:
    Mã:
    https://www.fshare.vn/file/SK7Z4AV9BLPJ
     
    Santa77 and phuong227 like this.
  14. noelhao

    noelhao Ultra HD4K Thành viên BQT

    Bài viết:
    6,240
    Đã được thích:
    1,063
    BRAZZERS - 116 - A Guilty Conscience 2016 - Peta Jensen_Bill Bailey 1080p WEB-DL

    [​IMG]

    Screenshot:


    [​IMG]

    Mediainfo:
    Mã:
    116 - A Guilty Conscience 2016 - Peta Jensen_Bill Bailey.mp4
    Format                      : MPEG-4
    Format profile              : Base Media
    Codec ID                    : isom (isom/iso2/avc1/mp41)
    File size                   : 2.53 GiB
    Duration                    : 30 min
    Overall bit rate            : 12.0 Mb/s
    Writing application         : Lavf57.28.100
    
    Video
    ID                          : 1
    Format                      : AVC
    Format/Info                 : Advanced Video Codec
    Format profile              : [email protected]
    Format settings, CABAC      : Yes
    Format settings, ReFrames   : 5 frames
    Codec ID                    : avc1
    Codec ID/Info               : Advanced Video Coding
    Duration                    : 30 min
    Bit rate                    : 12.0 Mb/s
    Width                       : 1 920 pixels
    Height                      : 1 080 pixels
    Display aspect ratio        : 16:9
    Frame rate mode             : Constant
    Frame rate                  : 29.970 (29970/1000) FPS
    Color space                 : YUV
    Chroma subsampling          : 4:2:0
    Bit depth                   : 8 bits
    Scan type                   : Progressive
    Bits/(Pixel*Frame)          : 0.193
    Stream size                 : 2.50 GiB (99%)
    Writing library             : x264 core 148 r2665 a01e339
    Encoding settings           : cabac=1 / ref=5 / deblock=1:0:0 / analyse=0x3:0x113 / me=umh / subme=8 / psy=1 / psy_rd=1.00:0.00 / mixed_ref=1 / me_range=16 / chroma_me=1 / trellis=1 / 8x8dct=1 / cqm=0 / deadzone=21,11 / fast_pskip=1 / chroma_qp_offset=-2 / threads=18 / lookahead_threads=3 / sliced_threads=0 / nr=0 / decimate=1 / interlaced=0 / bluray_compat=0 / constrained_intra=0 / bframes=3 / b_pyramid=2 / b_adapt=2 / b_bias=0 / direct=3 / weightb=1 / open_gop=0 / weightp=2 / keyint=60 / keyint_min=6 / scenecut=40 / intra_refresh=0 / rc_lookahead=50 / rc=abr / mbtree=1 / bitrate=12000 / ratetol=1.0 / qcomp=0.60 / qpmin=0 / qpmax=69 / qpstep=4 / ip_ratio=1.40 / aq=1:1.00
    Language                    : English
    Tagged date                 : UTC 2016-08-06 19:38:34
    
    Audio
    ID                          : 2
    Format                      : AAC
    Format/Info                 : Advanced Audio Codec
    Format profile              : LC
    Codec ID                    : 40
    Duration                    : 30 min
    Duration_LastFrame          : 21 ms
    Bit rate mode               : Constant
    Bit rate                    : 128 kb/s
    Channel(s)                  : 2 channels
    Channel positions           : Front: L R
    Sampling rate               : 48.0 kHz
    Frame rate                  : 46.875 FPS (1024 spf)
    Compression mode            : Lossy
    Stream size                 : 27.5 MiB (1%)
    Language                    : English
    Default                     : Yes
    Alternate group             : 1
    Tagged date                 : UTC 2016-08-06 19:38:34
    
    Pass giải nén (Extract rar): bQ49hFpS
    Direct link:
    Mã:
    https://www.fshare.vn/file/SBTXYQHX131K
     
    Santa77 thích bài này.
  15. noelhao

    noelhao Ultra HD4K Thành viên BQT

    Bài viết:
    6,240
    Đã được thích:
    1,063
    BRAZZERS - 117 - Lets Get Facials - BRAZZERS 1080p WEB-DL

    [​IMG]

    Screenshot:


    [​IMG]

    Mediainfo:
    Mã:
    117 - Lets Get Facials - BRAZZERS.mp4
    Format                      : MPEG-4
    Format profile              : Base Media
    Codec ID                    : isom (isom/iso2/avc1/mp41)
    File size                   : 4.26 GiB
    Duration                    : 48 min
    Overall bit rate            : 12.6 Mb/s
    Writing application         : Lavf55.1.100
    
    Video
    ID                          : 1
    Format                      : AVC
    Format/Info                 : Advanced Video Codec
    Format profile              : [email protected]
    Format settings, CABAC      : Yes
    Format settings, ReFrames   : 5 frames
    Codec ID                    : avc1
    Codec ID/Info               : Advanced Video Coding
    Duration                    : 48 min
    Bit rate                    : 12.0 Mb/s
    Width                       : 1 920 pixels
    Height                      : 1 080 pixels
    Display aspect ratio        : 16:9
    Frame rate mode             : Constant
    Frame rate                  : 23.976 (23976/1000) FPS
    Color space                 : YUV
    Chroma subsampling          : 4:2:0
    Bit depth                   : 8 bits
    Scan type                   : Progressive
    Bits/(Pixel*Frame)          : 0.241
    Stream size                 : 4.05 GiB (95%)
    Writing library             : x264 core 130 r2274 c832fe9
    Encoding settings           : cabac=1 / ref=5 / deblock=1:0:0 / analyse=0x3:0x113 / me=umh / subme=8 / psy=1 / psy_rd=1.00:0.00 / mixed_ref=1 / me_range=16 / chroma_me=1 / trellis=1 / 8x8dct=1 / cqm=0 / deadzone=21,11 / fast_pskip=1 / chroma_qp_offset=-2 / threads=36 / lookahead_threads=6 / sliced_threads=0 / nr=0 / decimate=1 / interlaced=0 / bluray_compat=0 / constrained_intra=0 / bframes=3 / b_pyramid=2 / b_adapt=2 / b_bias=0 / direct=3 / weightb=1 / open_gop=0 / weightp=2 / keyint=60 / keyint_min=6 / scenecut=40 / intra_refresh=0 / rc_lookahead=50 / rc=abr / mbtree=1 / bitrate=12000 / ratetol=1.0 / qcomp=0.60 / qpmin=0 / qpmax=69 / qpstep=4 / ip_ratio=1.40 / aq=1:1.00
    Language                    : English
    Tagged date                 : UTC 2016-02-05 13:47:50
    
    Audio
    ID                          : 2
    Format                      : AAC
    Format/Info                 : Advanced Audio Codec
    Format profile              : LC
    Codec ID                    : 40
    Duration                    : 48 min
    Duration_LastFrame          : 33 ms
    Bit rate mode               : Constant
    Bit rate                    : 128 kb/s
    Channel(s)                  : 2 channels
    Channel positions           : Front: L R
    Sampling rate               : 48.0 kHz
    Frame rate                  : 46.875 FPS (1024 spf)
    Compression mode            : Lossy
    Stream size                 : 44.4 MiB (1%)
    Language                    : English
    Default                     : Yes
    Alternate group             : 1
    Tagged date                 : UTC 2016-02-05 13:47:50
    
    Other #1
    ID                          : 65536
    Type                        : Hint
    Format                      : RTP
    Codec ID                    : rtp 
    Duration                    : 48 min
    Encoded date                : UTC 2016-02-05 13:47:35
    Tagged date                 : UTC 2016-02-05 13:47:50
    
    Other #2
    ID                          : 65537
    Type                        : Hint
    Format                      : RTP
    Codec ID                    : rtp 
    Duration                    : 48 min
    Encoded date                : UTC 2016-02-05 13:47:48
    Tagged date                 : UTC 2016-02-05 13:47:50
    Bit rate mode               : VBR
    
    Pass giải nén (Extract rar): hfhxr5jd
    Direct link:
    Mã:
    https://www.fshare.vn/file/UAMZV4NO5EC9
     
    Santa77 and httn9x like this.
  16. noelhao

    noelhao Ultra HD4K Thành viên BQT

    Bài viết:
    6,240
    Đã được thích:
    1,063
    BRAZZERS - 118 - Lets Get Facials 2 1080p WEB-DL

    [​IMG]

    Screenshot:


    [​IMG]

    Mediainfo:
    Mã:
    118 - Lets Get Facials 2 - BRAZZERS.mp4
    Format                      : MPEG-4
    Format profile              : Base Media
    Codec ID                    : isom (isom/iso2/avc1/mp41)
    File size                   : 2.91 GiB
    Duration                    : 34 min
    Overall bit rate            : 12.0 Mb/s
    Writing application         : Lavf57.28.100
    
    Video
    ID                          : 1
    Format                      : AVC
    Format/Info                 : Advanced Video Codec
    Format profile              : [email protected]
    Format settings, CABAC      : Yes
    Format settings, ReFrames   : 5 frames
    Codec ID                    : avc1
    Codec ID/Info               : Advanced Video Coding
    Duration                    : 34 min
    Bit rate                    : 12.0 Mb/s
    Width                       : 1 920 pixels
    Height                      : 1 080 pixels
    Display aspect ratio        : 16:9
    Frame rate mode             : Constant
    Frame rate                  : 23.976 (23976/1000) FPS
    Color space                 : YUV
    Chroma subsampling          : 4:2:0
    Bit depth                   : 8 bits
    Scan type                   : Progressive
    Bits/(Pixel*Frame)          : 0.241
    Stream size                 : 2.88 GiB (99%)
    Writing library             : x264 core 148 r2665 a01e339
    Encoding settings           : cabac=1 / ref=5 / deblock=1:0:0 / analyse=0x3:0x113 / me=umh / subme=8 / psy=1 / psy_rd=1.00:0.00 / mixed_ref=1 / me_range=16 / chroma_me=1 / trellis=1 / 8x8dct=1 / cqm=0 / deadzone=21,11 / fast_pskip=1 / chroma_qp_offset=-2 / threads=18 / lookahead_threads=3 / sliced_threads=0 / nr=0 / decimate=1 / interlaced=0 / bluray_compat=0 / constrained_intra=0 / bframes=3 / b_pyramid=2 / b_adapt=2 / b_bias=0 / direct=3 / weightb=1 / open_gop=0 / weightp=2 / keyint=60 / keyint_min=6 / scenecut=40 / intra_refresh=0 / rc_lookahead=50 / rc=abr / mbtree=1 / bitrate=12000 / ratetol=1.0 / qcomp=0.60 / qpmin=0 / qpmax=69 / qpstep=4 / ip_ratio=1.40 / aq=1:1.00
    Language                    : English
    Tagged date                 : UTC 2016-08-12 13:29:11
    
    Audio
    ID                          : 2
    Format                      : AAC
    Format/Info                 : Advanced Audio Codec
    Format profile              : LC
    Codec ID                    : 40
    Duration                    : 34 min
    Duration_LastFrame          : 21 ms
    Bit rate mode               : Constant
    Bit rate                    : 129 kb/s
    Channel(s)                  : 2 channels
    Channel positions           : Front: L R
    Sampling rate               : 48.0 kHz
    Frame rate                  : 46.875 FPS (1024 spf)
    Compression mode            : Lossy
    Stream size                 : 31.9 MiB (1%)
    Language                    : English
    Default                     : Yes
    Alternate group             : 1
    Tagged date                 : UTC 2016-08-12 13:29:11
    
    Pass giải nén (Extract rar): rftyg46td
    Direct link:
    Mã:
    https://www.fshare.vn/file/GFI1A4HR53P2
     
    Santa77 thích bài này.
  17. noelhao

    noelhao Ultra HD4K Thành viên BQT

    Bài viết:
    6,240
    Đã được thích:
    1,063
    Reality Kings 1080p WEB-DL

    43 - MonsterCurves - Caution curves 2011

    [​IMG]

    Screenshot:


    [​IMG]

    Mediainfo:
    Mã:
    43 - MonsterCurves - Caution curves 2011.mp4
    Format                      : MPEG-4
    Format profile              : Base Media / Version 2
    Codec ID                    : mp42 (isom/mp41/avc1)
    File size                   : 3.12 GiB
    Duration                    : 43 min
    Overall bit rate mode       : Variable
    Overall bit rate            : 10.2 Mb/s
    Encoded date                : UTC 2011-04-18 22:55:33
    Tagged date                 : UTC 2011-04-18 22:55:33
    Writing library             : Apple QuickTime
    
    Video
    ID                          : 1
    Format                      : AVC
    Format/Info                 : Advanced Video Codec
    Format profile              : [email protected]
    Format settings, CABAC      : No
    Format settings, ReFrames   : 3 frames
    Codec ID                    : avc1
    Codec ID/Info               : Advanced Video Coding
    Duration                    : 43 min
    Source duration             : 43 min
    Bit rate mode               : Variable
    Bit rate                    : 9 596 kb/s
    Maximum bit rate            : 10.0 Mb/s
    Width                       : 1 920 pixels
    Height                      : 1 080 pixels
    Display aspect ratio        : 16:9
    Frame rate mode             : Constant
    Frame rate                  : 29.970 (29970/1000) FPS
    Standard                    : Component
    Color space                 : YUV
    Chroma subsampling          : 4:2:0
    Bit depth                   : 8 bits
    Scan type                   : Progressive
    Bits/(Pixel*Frame)          : 0.154
    Stream size                 : 2.94 GiB (94%)
    Source stream size          : 3.06 GiB (98%)
    Encoded date                : UTC 2011-04-18 22:55:33
    Tagged date                 : UTC 2011-04-17 22:56:35
    Color range                 : Limited
    
    Audio
    ID                          : 2
    Format                      : AAC
    Format/Info                 : Advanced Audio Codec
    Format profile              : LC
    Codec ID                    : 40
    Duration                    : 43 min
    Bit rate mode               : Variable
    Bit rate                    : 192 kb/s
    Maximum bit rate            : 200 kb/s
    Channel(s)                  : 2 channels
    Channel positions           : Front: L R
    Sampling rate               : 48.0 kHz
    Frame rate                  : 46.875 FPS (1024 spf)
    Compression mode            : Lossy
    Stream size                 : 60.2 MiB (2%)
    Encoded date                : UTC 2011-04-18 22:55:33
    Tagged date                 : UTC 2011-04-17 22:56:35
    Pass giải nén (Extract rar): 34975146
    Direct link:
    Mã:
    https://www.fshare.vn/file/J2HX11QEJ86X
     
    Santa77 thích bài này.
  18. noelhao

    noelhao Ultra HD4K Thành viên BQT

    Bài viết:
    6,240
    Đã được thích:
    1,063
    Reality Kings 1080p WEB-DL

    44 - Euro Sex Parties - Soapy Sucking 2015

    [​IMG]

    Screenshot:


    [​IMG]

    Mediainfo:
    Mã:
    44 - Euro Sex Parties - Soapy Sucking 2015.mp4
    Format                      : MPEG-4
    Format profile              : Base Media / Version 2
    Codec ID                    : mp42 (isom/mp41/avc1)
    File size                   : 2.83 GiB
    Duration                    : 39 min
    Overall bit rate mode       : Variable
    Overall bit rate            : 10.2 Mb/s
    Encoded date                : UTC 2015-04-15 23:42:46
    Tagged date                 : UTC 2015-04-15 23:42:46
    Writing library             : Apple QuickTime
    
    Video
    ID                          : 1
    Format                      : AVC
    Format/Info                 : Advanced Video Codec
    Format profile              : [email protected]
    Format settings, CABAC      : No
    Format settings, ReFrames   : 3 frames
    Codec ID                    : avc1
    Codec ID/Info               : Advanced Video Coding
    Duration                    : 39 min
    Source duration             : 39 min
    Bit rate mode               : Variable
    Bit rate                    : 9 585 kb/s
    Maximum bit rate            : 10.0 Mb/s
    Width                       : 1 920 pixels
    Height                      : 1 080 pixels
    Display aspect ratio        : 16:9
    Frame rate mode             : Constant
    Frame rate                  : 29.970 (29970/1000) FPS
    Standard                    : Component
    Color space                 : YUV
    Chroma subsampling          : 4:2:0
    Bit depth                   : 8 bits
    Scan type                   : Progressive
    Bits/(Pixel*Frame)          : 0.154
    Stream size                 : 2.66 GiB (94%)
    Source stream size          : 2.78 GiB (98%)
    Encoded date                : UTC 2015-04-15 23:42:46
    Tagged date                 : UTC 2015-04-14 23:43:28
    Color range                 : Limited
    
    Audio
    ID                          : 2
    Format                      : AAC
    Format/Info                 : Advanced Audio Codec
    Format profile              : LC
    Codec ID                    : 40
    Duration                    : 39 min
    Bit rate mode               : Variable
    Bit rate                    : 192 kb/s
    Maximum bit rate            : 198 kb/s
    Channel(s)                  : 2 channels
    Channel positions           : Front: L R
    Sampling rate               : 48.0 kHz
    Frame rate                  : 46.875 FPS (1024 spf)
    Compression mode            : Lossy
    Stream size                 : 54.6 MiB (2%)
    Encoded date                : UTC 2015-04-15 23:42:46
    Tagged date                 : UTC 2015-04-14 23:43:28
    Pass giải nén (Extract rar): 61847490
    Direct link:
    Mã:
    https://www.fshare.vn/file/K6SAPEOV5QZH
     
    Santa77 thích bài này.
  19. noelhao

    noelhao Ultra HD4K Thành viên BQT

    Bài viết:
    6,240
    Đã được thích:
    1,063
    PrettyDirty.com - Anikka Albrite - You're Not Going Anywhere 18.09.2016 1080p WEB-DL

    [​IMG]

    Screenshot:


    [​IMG]

    Mediainfo:
    Mã:
    PrettyDirty.com - Anikka Albrite - You're Not Going Anywhere 18.09.2016 1080p WEB-DL.mp4
    Format                      : MPEG-4
    Format profile              : Base Media
    Codec ID                    : isom (isom/iso2/avc1/mp41)
    File size                   : 2.03 GiB
    Duration                    : 41 min 45 s
    Overall bit rate            : 6 946 kb/s
    Movie name                  : RARBG.COM - PrettyDirty.16.09.18.Anikka.Albrite.Youre.Not.Going.Anywhere.XXX.1080p.MP4-KTR
    Writing application         : Lavf57.25.100
    Comment                     : RARBG.COM - PrettyDirty.16.09.18.Anikka.Albrite.Youre.Not.Going.Anywhere.XXX.1080p.MP4-KTR
    
    Video
    ID                          : 1
    Format                      : AVC
    Format/Info                 : Advanced Video Codec
    Format profile              : [email protected]
    Format settings, CABAC      : Yes
    Format settings, ReFrames   : 4 frames
    Codec ID                    : avc1
    Codec ID/Info               : Advanced Video Coding
    Duration                    : 41 min 45 s
    Bit rate                    : 6 800 kb/s
    Width                       : 1 920 pixels
    Height                      : 1 080 pixels
    Display aspect ratio        : 16:9
    Frame rate mode             : Constant
    Frame rate                  : 29.970 (29970/1000) FPS
    Color space                 : YUV
    Chroma subsampling          : 4:2:0
    Bit depth                   : 8 bits
    Scan type                   : Progressive
    Bits/(Pixel*Frame)          : 0.109
    Stream size                 : 1.97 GiB (97%)
    Writing library             : x264 core 148
    Encoding settings           : cabac=1 / ref=3 / deblock=1:0:0 / analyse=0x3:0x113 / me=umh / subme=7 / psy=1 / psy_rd=1.00:0.00 / mixed_ref=1 / me_range=16 / chroma_me=1 / trellis=1 / 8x8dct=1 / cqm=0 / deadzone=21,11 / fast_pskip=1 / chroma_qp_offset=-2 / threads=34 / lookahead_threads=5 / sliced_threads=0 / nr=0 / decimate=1 / interlaced=0 / bluray_compat=0 / constrained_intra=0 / bframes=3 / b_pyramid=2 / b_adapt=1 / b_bias=0 / direct=1 / weightb=1 / open_gop=0 / weightp=2 / keyint=250 / keyint_min=25 / scenecut=40 / intra_refresh=0 / rc_lookahead=40 / rc=abr / mbtree=1 / bitrate=6800 / ratetol=1.0 / qcomp=0.60 / qpmin=0 / qpmax=69 / qpstep=4 / ip_ratio=1.40 / aq=1:1.00
    
    Audio
    ID                          : 2
    Format                      : AAC
    Format/Info                 : Advanced Audio Codec
    Format profile              : LC
    Codec ID                    : 40
    Duration                    : 41 min 45 s
    Duration_LastFrame          : 38 ms
    Bit rate mode               : Constant
    Bit rate                    : 192 kb/s
    Channel(s)                  : 2 channels
    Channel positions           : Front: L R
    Sampling rate               : 44.1 kHz
    Frame rate                  : 43.066 FPS (1024 spf)
    Compression mode            : Lossy
    Stream size                 : 57.4 MiB (3%)
    Default                     : Yes
    Alternate group             : 1
    
    Pass giải nén (Extract rar): 48615972
    Direct link:
    Mã:
    https://www.fshare.vn/file/Z1UVKXODH4TH
     
    Chỉnh sửa cuối: 5/1/17
    Santa77 thích bài này.
  20. noelhao

    noelhao Ultra HD4K Thành viên BQT

    Bài viết:
    6,240
    Đã được thích:
    1,063
    PrettyDirty.com - Dahlia Sky - Two Cocks_One Hole 09.10.2016 1080p WEB-DL

    [​IMG]

    Screenshot:


    [​IMG]

    Mediainfo:
    Mã:
    PrettyDirty.com - Dahlia Sky - Two Cocks_One Hole 09.10.2016 1080p WEB-DL.mp4
    Format                      : MPEG-4
    Format profile              : Base Media
    Codec ID                    : isom (isom/iso2/avc1/mp41)
    File size                   : 2.11 GiB
    Duration                    : 43 min 38 s
    Overall bit rate            : 6 917 kb/s
    Movie name                  : RARBG.COM - PrettyDirty.16.10.09.Dahlia.Sky.Two.Cocks.One.Hole.XXX.1080p.MP4-KTR
    Writing application         : Lavf57.25.100
    Comment                     : RARBG.COM - PrettyDirty.16.10.09.Dahlia.Sky.Two.Cocks.One.Hole.XXX.1080p.MP4-KTR
    
    Video
    ID                          : 1
    Format                      : AVC
    Format/Info                 : Advanced Video Codec
    Format profile              : [email protected]
    Format settings, CABAC      : Yes
    Format settings, ReFrames   : 4 frames
    Codec ID                    : avc1
    Codec ID/Info               : Advanced Video Coding
    Duration                    : 43 min 38 s
    Bit rate                    : 6 800 kb/s
    Width                       : 1 920 pixels
    Height                      : 1 080 pixels
    Display aspect ratio        : 16:9
    Frame rate mode             : Constant
    Frame rate                  : 29.970 (29970/1000) FPS
    Color space                 : YUV
    Chroma subsampling          : 4:2:0
    Bit depth                   : 8 bits
    Scan type                   : Progressive
    Bits/(Pixel*Frame)          : 0.109
    Stream size                 : 2.05 GiB (97%)
    Writing library             : x264 core 148
    Encoding settings           : cabac=1 / ref=3 / deblock=1:0:0 / analyse=0x3:0x113 / me=umh / subme=7 / psy=1 / psy_rd=1.00:0.00 / mixed_ref=1 / me_range=16 / chroma_me=1 / trellis=1 / 8x8dct=1 / cqm=0 / deadzone=21,11 / fast_pskip=1 / chroma_qp_offset=-2 / threads=34 / lookahead_threads=5 / sliced_threads=0 / nr=0 / decimate=1 / interlaced=0 / bluray_compat=0 / constrained_intra=0 / bframes=3 / b_pyramid=2 / b_adapt=1 / b_bias=0 / direct=1 / weightb=1 / open_gop=0 / weightp=2 / keyint=250 / keyint_min=25 / scenecut=40 / intra_refresh=0 / rc_lookahead=40 / rc=abr / mbtree=1 / bitrate=6800 / ratetol=1.0 / qcomp=0.60 / qpmin=0 / qpmax=69 / qpstep=4 / ip_ratio=1.40 / aq=1:1.00
    
    Audio
    ID                          : 2
    Format                      : AAC
    Format/Info                 : Advanced Audio Codec
    Format profile              : LC
    Codec ID                    : 40
    Duration                    : 43 min 38 s
    Duration_LastFrame          : 39 ms
    Bit rate mode               : Constant
    Bit rate                    : 192 kb/s
    Channel(s)                  : 2 channels
    Channel positions           : Front: L R
    Sampling rate               : 44.1 kHz
    Frame rate                  : 43.066 FPS (1024 spf)
    Compression mode            : Lossy
    Stream size                 : 59.9 MiB (3%)
    Default                     : Yes
    Alternate group             : 1
    
    Pass giải nén (Extract rar): 88249120
    Direct link:
    Mã:
    https://www.fshare.vn/file/PAZTWRSITBU3
     
    Chỉnh sửa cuối: 5/1/17
    Santa77 thích bài này.
Đang tải...
Similar Threads Diễn đàn Date
[Fshare] BST Brazzers - Naughty America - vv Phim Sex Âu Mỹ - Western Porn - Direct Fast Link Thứ bảy lúc 13:08

Chia sẻ trang này