1. Hiện tại có nhiều bạn ko nhận được Email kích hoạt từ hệ thống, BQT đã rà soát và thấy đa số các trường hợp này dùng GMAIL. Trong thời gian chờ khắc phục, các bạn có thể tạm dùng các email khác để đăng ký và nhận email kích hoạt ( Yahoo, hotmail,....). Xin cảm ơn
    Dismiss Notice

Collections Movies DVD, HD 720p 1080p[Fshare]

Thảo luận trong 'Phim Sex Âu Mỹ - Western Porn - Direct Fast Link' bắt đầu bởi noelhao, 15/10/14.

  1. noelhao

    noelhao Ultra HD4K Thành viên BQT

    Bài viết:
    5,664
    Đã được thích:
    462
    PrettyDirty.com - Kristen Scott In Love With Daddy - Part Two 28.09.2016 1080p WEB-DL

    [​IMG]

    Screenshot:


    [​IMG]

    Mediainfo:
    Mã:
    PrettyDirty.com - Kristen Scott In Love With Daddy - Part Two 28.09.2016 1080p WEB-DL.mp4
    Format                      : MPEG-4
    Format profile              : Base Media
    Codec ID                    : isom (isom/iso2/avc1/mp41)
    File size                   : 2.18 GiB
    Duration                    : 45 min 6 s
    Overall bit rate            : 6 921 kb/s
    Writing application         : Lavf57.25.100
    
    Video
    ID                          : 1
    Format                      : AVC
    Format/Info                 : Advanced Video Codec
    Format profile              : [email protected]
    Format settings, CABAC      : Yes
    Format settings, ReFrames   : 4 frames
    Codec ID                    : avc1
    Codec ID/Info               : Advanced Video Coding
    Duration                    : 45 min 6 s
    Bit rate                    : 6 800 kb/s
    Width                       : 1 920 pixels
    Height                      : 1 080 pixels
    Display aspect ratio        : 16:9
    Frame rate mode             : Constant
    Frame rate                  : 29.970 (29970/1000) FPS
    Color space                 : YUV
    Chroma subsampling          : 4:2:0
    Bit depth                   : 8 bits
    Scan type                   : Progressive
    Bits/(Pixel*Frame)          : 0.109
    Stream size                 : 2.12 GiB (97%)
    Writing library             : x264 core 148
    Encoding settings           : cabac=1 / ref=3 / deblock=1:0:0 / analyse=0x3:0x113 / me=umh / subme=7 / psy=1 / psy_rd=1.00:0.00 / mixed_ref=1 / me_range=16 / chroma_me=1 / trellis=1 / 8x8dct=1 / cqm=0 / deadzone=21,11 / fast_pskip=1 / chroma_qp_offset=-2 / threads=34 / lookahead_threads=5 / sliced_threads=0 / nr=0 / decimate=1 / interlaced=0 / bluray_compat=0 / constrained_intra=0 / bframes=3 / b_pyramid=2 / b_adapt=1 / b_bias=0 / direct=1 / weightb=1 / open_gop=0 / weightp=2 / keyint=250 / keyint_min=25 / scenecut=40 / intra_refresh=0 / rc_lookahead=40 / rc=abr / mbtree=1 / bitrate=6800 / ratetol=1.0 / qcomp=0.60 / qpmin=0 / qpmax=69 / qpstep=4 / ip_ratio=1.40 / aq=1:1.00
    
    Audio
    ID                          : 2
    Format                      : AAC
    Format/Info                 : Advanced Audio Codec
    Format profile              : LC
    Codec ID                    : 40
    Duration                    : 45 min 6 s
    Duration_LastFrame          : 35 ms
    Bit rate mode               : Constant
    Bit rate                    : 192 kb/s
    Channel(s)                  : 2 channels
    Channel positions           : Front: L R
    Sampling rate               : 44.1 kHz
    Frame rate                  : 43.066 FPS (1024 spf)
    Compression mode            : Lossy
    Stream size                 : 61.9 MiB (3%)
    Default                     : Yes
    Alternate group             : 1
    
    Pass giải nén (Extract rar): 34672894
    Direct link:
    Mã:
    https://www.fshare.vn/file/3VWODKF565WW
     
  2. noelhao

    noelhao Ultra HD4K Thành viên BQT

    Bài viết:
    5,664
    Đã được thích:
    462
    PrettyDirty.com - Sara Luvv My Ex Is Crazy 30.10.2016 1080p WEB-DL

    [​IMG]

    Screenshot:


    [​IMG]

    Mediainfo:
    Mã:
    PrettyDirty.com - Sara Luvv My Ex Is Crazy 30.10.2016 1080p WEB-DL.mp4
    Format                      : MPEG-4
    Format profile              : Base Media
    Codec ID                    : isom (isom/iso2/avc1/mp41)
    File size                   : 2.09 GiB
    Duration                    : 43 min 12 s
    Overall bit rate            : 6 937 kb/s
    Writing application         : Lavf57.25.100
    
    Video
    ID                          : 1
    Format                      : AVC
    Format/Info                 : Advanced Video Codec
    Format profile              : [email protected]
    Format settings, CABAC      : Yes
    Format settings, ReFrames   : 4 frames
    Codec ID                    : avc1
    Codec ID/Info               : Advanced Video Coding
    Duration                    : 43 min 12 s
    Bit rate                    : 6 800 kb/s
    Width                       : 1 920 pixels
    Height                      : 1 080 pixels
    Display aspect ratio        : 16:9
    Frame rate mode             : Constant
    Frame rate                  : 29.970 (29970/1000) FPS
    Color space                 : YUV
    Chroma subsampling          : 4:2:0
    Bit depth                   : 8 bits
    Scan type                   : Progressive
    Bits/(Pixel*Frame)          : 0.109
    Stream size                 : 2.03 GiB (97%)
    Writing library             : x264 core 148
    Encoding settings           : cabac=1 / ref=3 / deblock=1:0:0 / analyse=0x3:0x113 / me=umh / subme=7 / psy=1 / psy_rd=1.00:0.00 / mixed_ref=1 / me_range=16 / chroma_me=1 / trellis=1 / 8x8dct=1 / cqm=0 / deadzone=21,11 / fast_pskip=1 / chroma_qp_offset=-2 / threads=34 / lookahead_threads=5 / sliced_threads=0 / nr=0 / decimate=1 / interlaced=0 / bluray_compat=0 / constrained_intra=0 / bframes=3 / b_pyramid=2 / b_adapt=1 / b_bias=0 / direct=1 / weightb=1 / open_gop=0 / weightp=2 / keyint=250 / keyint_min=25 / scenecut=40 / intra_refresh=0 / rc_lookahead=40 / rc=abr / mbtree=1 / bitrate=6800 / ratetol=1.0 / qcomp=0.60 / qpmin=0 / qpmax=69 / qpstep=4 / ip_ratio=1.40 / aq=1:1.00
    
    Audio
    ID                          : 2
    Format                      : AAC
    Format/Info                 : Advanced Audio Codec
    Format profile              : LC
    Codec ID                    : 40
    Duration                    : 43 min 12 s
    Duration_LastFrame          : 46 ms
    Bit rate mode               : Constant
    Bit rate                    : 192 kb/s
    Channel(s)                  : 2 channels
    Channel positions           : Front: L R
    Sampling rate               : 44.1 kHz
    Frame rate                  : 43.066 FPS (1024 spf)
    Compression mode            : Lossy
    Stream size                 : 59.3 MiB (3%)
    Default                     : Yes
    Alternate group             : 1
    
    Pass giải nén (Extract rar): 74478129
    Direct link:
    Mã:
    https://www.fshare.vn/file/SY7VGEC8T9G9
     
  3. Pymax

    Pymax Còn Bú Sữa Mẹ

    Bài viết:
    2
    Đã được thích:
    1
    toàn phim cổ tks bác
     
    [GANON88] thích bài này.
  4. noelhao

    noelhao Ultra HD4K Thành viên BQT

    Bài viết:
    5,664
    Đã được thích:
    462
    CUNG CHÚC TÂN XUÂN!
    Kính chúc Anh Em cùng toàn thể gia đình một Năm Mới An Khang Thịnh Vượng.
     
    galaxy91 and [GANON88] like this.
  5. itachihunter

    itachihunter Còn Bú Sữa Mẹ Verified

    Bài viết:
    18
    Đã được thích:
    3
  6. noelhao

    noelhao Ultra HD4K Thành viên BQT

    Bài viết:
    5,664
    Đã được thích:
    462
    Hai phim này bản 720p WEB-DL, khá bé so với yêu cầu của mình, thường thì không nhận nhưng bạn là người đầu tiên trong Năm Mới yêu cầu nên mình sẽ post. Chúc bạn Đầu Xuân vui vẻ!
     
  7. itachihunter

    itachihunter Còn Bú Sữa Mẹ Verified

    Bài viết:
    18
    Đã được thích:
    3
    hihi thanks bác trước nhé
     
    noelhao thích bài này.
  8. noelhao

    noelhao Ultra HD4K Thành viên BQT

    Bài viết:
    5,664
    Đã được thích:
    462
    Harmony - Divine Whores 2012 720p WEB-DL

    [​IMG]

    Screenshot:


    [​IMG]

    Mediainfo:
    Mã:
    Harmony - Divine Whores 2012 720p WEB-DL\1.Anissa Kate.mp4
    Format                      : MPEG-4
    Format profile              : Base Media / Version 2
    Codec ID                    : mp42 (mp42/mp41)
    File size                   : 719 MiB
    Duration                    : 31 min 32 s
    Overall bit rate mode       : Variable
    Overall bit rate            : 3 187 kb/s
    Encoded date                : UTC 2012-10-01 18:49:05
    Tagged date                 : UTC 2012-10-01 18:49:24
    ©TIM                        : 00:34:54:13
    ©TSC                        : 25
    ©TSZ                        : 1
    
    Video
    ID                          : 1
    Format                      : AVC
    Format/Info                 : Advanced Video Codec
    Format profile              : [email protected]
    Format settings, CABAC      : Yes
    Format settings, ReFrames   : 3 frames
    Codec ID                    : avc1
    Codec ID/Info               : Advanced Video Coding
    Duration                    : 31 min 32 s
    Bit rate mode               : Constant
    Bit rate                    : 3 000 kb/s
    Width                       : 1 280 pixels
    Height                      : 720 pixels
    Display aspect ratio        : 16:9
    Frame rate mode             : Constant
    Frame rate                  : 25.000 FPS
    Standard                    : PAL
    Color space                 : YUV
    Chroma subsampling          : 4:2:0
    Bit depth                   : 8 bits
    Scan type                   : Progressive
    Bits/(Pixel*Frame)          : 0.130
    Stream size                 : 675 MiB (94%)
    Language                    : English
    Encoded date                : UTC 2012-10-01 18:49:05
    Tagged date                 : UTC 2012-10-01 18:49:05
    Color range                 : Limited
    
    Audio
    ID                          : 2
    Format                      : AAC
    Format/Info                 : Advanced Audio Codec
    Format profile              : LC
    Codec ID                    : 40
    Duration                    : 31 min 32 s
    Bit rate mode               : Variable
    Bit rate                    : 192 kb/s
    Maximum bit rate            : 289 kb/s
    Channel(s)                  : 2 channels
    Channel positions           : Front: L R
    Sampling rate               : 48.0 kHz
    Frame rate                  : 46.875 FPS (1024 spf)
    Compression mode            : Lossy
    Stream size                 : 42.7 MiB (6%)
    Language                    : English
    Encoded date                : UTC 2012-10-01 18:49:05
    Tagged date                 : UTC 2012-10-01 18:49:05
    
    Pass giải nén (Extract rar): 3857eead
    Direct link:
    Mã:
    https://www.fshare.vn/file/EAYRLHARR6CV
     
    itachihunter thích bài này.
  9. noelhao

    noelhao Ultra HD4K Thành viên BQT

    Bài viết:
    5,664
    Đã được thích:
    462
    Harmony - Sex Parade The Voyeur 720p WEB-DL

    [​IMG]

    Screenshot:


    [​IMG]

    Mediainfo:
    Mã:
    Harmony - Sex Parade The Voyeur 720p WEB-DL\1. Rebecca More, Scarlett March.mp4
    Format                      : MPEG-4
    Format profile              : Base Media / Version 2
    Codec ID                    : mp42 (mp42/mp41)
    File size                   : 705 MiB
    Duration                    : 30 min 57 s
    Overall bit rate mode       : Variable
    Overall bit rate            : 3 186 kb/s
    Encoded date                : UTC 2012-10-09 22:01:06
    Tagged date                 : UTC 2012-10-09 22:01:40
    ©TIM                        : 00:49:25:19
    ©TSC                        : 25
    ©TSZ                        : 1
    
    Video
    ID                          : 1
    Format                      : AVC
    Format/Info                 : Advanced Video Codec
    Format profile              : [email protected]
    Format settings, CABAC      : Yes
    Format settings, ReFrames   : 3 frames
    Codec ID                    : avc1
    Codec ID/Info               : Advanced Video Coding
    Duration                    : 30 min 57 s
    Bit rate mode               : Constant
    Bit rate                    : 3 000 kb/s
    Width                       : 1 280 pixels
    Height                      : 720 pixels
    Display aspect ratio        : 16:9
    Frame rate mode             : Constant
    Frame rate                  : 25.000 FPS
    Standard                    : PAL
    Color space                 : YUV
    Chroma subsampling          : 4:2:0
    Bit depth                   : 8 bits
    Scan type                   : Progressive
    Bits/(Pixel*Frame)          : 0.130
    Stream size                 : 663 MiB (94%)
    Language                    : English
    Encoded date                : UTC 2012-10-09 22:01:06
    Tagged date                 : UTC 2012-10-09 22:01:06
    Color range                 : Limited
    
    Audio
    ID                          : 2
    Format                      : AAC
    Format/Info                 : Advanced Audio Codec
    Format profile              : LC
    Codec ID                    : 40
    Duration                    : 30 min 57 s
    Bit rate mode               : Variable
    Bit rate                    : 192 kb/s
    Maximum bit rate            : 285 kb/s
    Channel(s)                  : 2 channels
    Channel positions           : Front: L R
    Sampling rate               : 48.0 kHz
    Frame rate                  : 46.875 FPS (1024 spf)
    Compression mode            : Lossy
    Stream size                 : 41.9 MiB (6%)
    Language                    : English
    Encoded date                : UTC 2012-10-09 22:01:06
    Tagged date                 : UTC 2012-10-09 22:01:06
    
    Pass giải nén (Extract rar): 4927udea
    Direct link:
    Mã:
    https://www.fshare.vn/file/E9T1FRBXJL4I
     
    itachihunter thích bài này.
  10. itachihunter

    itachihunter Còn Bú Sữa Mẹ Verified

    Bài viết:
    18
    Đã được thích:
    3
    quá good bác đúng là thần tượng
     
  11. noelhao

    noelhao Ultra HD4K Thành viên BQT

    Bài viết:
    5,664
    Đã được thích:
    462
    BRAZZERS - 119 - Kagney's Crazy Keister - Kagney Linn Karter & Mick Blue 2012 1080p WEB-DL

    [​IMG]

    Screenshot:


    [​IMG]

    Mediainfo:
    Mã:
    119 - Kagney's Crazy Keister - Kagney Linn Karter & Mick Blue 2012.mp4
    Format                      : MPEG-4
    Format profile              : Base Media
    Codec ID                    : isom (isom/iso2/avc1/mp41)
    File size                   : 3.34 GiB
    Duration                    : 37 min 54 s
    Overall bit rate mode       : Variable
    Overall bit rate            : 12.6 Mb/s
    Encoded date                : UTC 1970-01-01 00:00:00
    Tagged date                 : UTC 1970-01-01 00:00:00
    Writing application         : Lavf52.102.0
    
    Video
    ID                          : 1
    Format                      : AVC
    Format/Info                 : Advanced Video Codec
    Format profile              : [email protected]
    Format settings, CABAC      : Yes
    Format settings, ReFrames   : 5 frames
    Codec ID                    : avc1
    Codec ID/Info               : Advanced Video Coding
    Duration                    : 37 min 54 s
    Bit rate                    : 12.0 Mb/s
    Width                       : 1 920 pixels
    Height                      : 1 080 pixels
    Display aspect ratio        : 16:9
    Frame rate mode             : Constant
    Frame rate                  : 29.970 (30000/1001) FPS
    Color space                 : YUV
    Chroma subsampling          : 4:2:0
    Bit depth                   : 8 bits
    Scan type                   : Progressive
    Bits/(Pixel*Frame)          : 0.193
    Stream size                 : 3.18 GiB (95%)
    Writing library             : x264 core 114 r1913 5fd3dce
    Encoding settings           : cabac=1 / ref=5 / deblock=1:0:0 / analyse=0x3:0x113 / me=umh / subme=8 / psy=1 / psy_rd=1.00:0.00 / mixed_ref=1 / me_range=16 / chroma_me=1 / trellis=1 / 8x8dct=1 / cqm=0 / deadzone=21,11 / fast_pskip=1 / chroma_qp_offset=-2 / threads=12 / sliced_threads=0 / nr=0 / decimate=1 / interlaced=0 / constrained_intra=0 / bframes=3 / b_pyramid=2 / b_adapt=2 / b_bias=0 / direct=3 / weightb=1 / open_gop=0 / weightp=2 / keyint=60 / keyint_min=25 / scenecut=40 / intra_refresh=0 / rc_lookahead=50 / rc=abr / mbtree=1 / bitrate=12000 / ratetol=1.0 / qcomp=0.60 / qpmin=10 / qpmax=51 / qpstep=4 / ip_ratio=1.41 / aq=1:1.00
    Language                    : English
    Encoded date                : UTC 1970-01-01 00:00:00
    Tagged date                 : UTC 2012-02-24 18:19:40
    
    Audio
    ID                          : 2
    Format                      : AAC
    Format/Info                 : Advanced Audio Codec
    Format profile              : LC
    Codec ID                    : 40
    Duration                    : 37 min 54 s
    Bit rate mode               : Variable
    Bit rate                    : 128 kb/s
    Channel(s)                  : 2 channels
    Channel positions           : Front: L R
    Sampling rate               : 48.0 kHz
    Frame rate                  : 46.875 FPS (1024 spf)
    Compression mode            : Lossy
    Stream size                 : 34.7 MiB (1%)
    Language                    : English
    Encoded date                : UTC 1970-01-01 00:00:00
    Tagged date                 : UTC 2012-02-24 18:19:40
    
    Other #1
    ID                          : 65536
    Type                        : Hint
    Format                      : RTP
    Codec ID                    : rtp 
    Duration                    : 37 min 54 s
    Encoded date                : UTC 2012-02-24 18:18:02
    Tagged date                 : UTC 2012-02-24 18:19:40
    
    Other #2
    ID                          : 65537
    Type                        : Hint
    Format                      : RTP
    Codec ID                    : rtp 
    Duration                    : 37 min 54 s
    Encoded date                : UTC 2012-02-24 18:19:38
    Tagged date                 : UTC 2012-02-24 18:19:40
    Bit rate mode               : VBR
    
    Pass giải nén (Extract rar): ngef4457
    Direct link:
    Mã:
    https://www.fshare.vn/file/HHLCNXIINJGC
     
  12. noelhao

    noelhao Ultra HD4K Thành viên BQT

    Bài viết:
    5,664
    Đã được thích:
    462
    BRAZZERS - 120 - At Home Booty 2014- Kagney Linn Karter & Bill Bailey 1080p WEB-DL

    [​IMG]

    Screenshot:


    [​IMG]

    Mediainfo:
    Mã:
    120 - At Home Booty 2014- Kagney Linn Karter & Bill Bailey.mp4
    Format                      : MPEG-4
    Format profile              : Base Media
    Codec ID                    : isom (isom/iso2/avc1/mp41)
    File size                   : 3.24 GiB
    Duration                    : 36 min 48 s
    Overall bit rate            : 12.6 Mb/s
    Writing application         : Lavf55.1.100
    
    Video
    ID                          : 1
    Format                      : AVC
    Format/Info                 : Advanced Video Codec
    Format profile              : [email protected]
    Format settings, CABAC      : Yes
    Format settings, ReFrames   : 5 frames
    Codec ID                    : avc1
    Codec ID/Info               : Advanced Video Coding
    Duration                    : 36 min 48 s
    Bit rate                    : 12.0 Mb/s
    Width                       : 1 920 pixels
    Height                      : 1 080 pixels
    Display aspect ratio        : 16:9
    Frame rate mode             : Constant
    Frame rate                  : 29.970 (29970/1000) FPS
    Color space                 : YUV
    Chroma subsampling          : 4:2:0
    Bit depth                   : 8 bits
    Scan type                   : Progressive
    Bits/(Pixel*Frame)          : 0.193
    Stream size                 : 3.08 GiB (95%)
    Writing library             : x264 core 130 r2274 c832fe9
    Encoding settings           : cabac=1 / ref=5 / deblock=1:0:0 / analyse=0x3:0x113 / me=umh / subme=8 / psy=1 / psy_rd=1.00:0.00 / mixed_ref=1 / me_range=16 / chroma_me=1 / trellis=1 / 8x8dct=1 / cqm=0 / deadzone=21,11 / fast_pskip=1 / chroma_qp_offset=-2 / threads=36 / lookahead_threads=6 / sliced_threads=0 / nr=0 / decimate=1 / interlaced=0 / bluray_compat=0 / constrained_intra=0 / bframes=3 / b_pyramid=2 / b_adapt=2 / b_bias=0 / direct=3 / weightb=1 / open_gop=0 / weightp=2 / keyint=60 / keyint_min=6 / scenecut=40 / intra_refresh=0 / rc_lookahead=50 / rc=abr / mbtree=1 / bitrate=12000 / ratetol=1.0 / qcomp=0.60 / qpmin=0 / qpmax=69 / qpstep=4 / ip_ratio=1.40 / aq=1:1.00
    Tagged date                 : UTC 2014-02-14 02:32:57
    
    Audio
    ID                          : 2
    Format                      : AAC
    Format/Info                 : Advanced Audio Codec
    Format profile              : LC
    Codec ID                    : 40
    Duration                    : 36 min 48 s
    Duration_LastFrame          : 33 ms
    Bit rate mode               : Constant
    Bit rate                    : 128 kb/s
    Channel(s)                  : 2 channels
    Channel positions           : Front: L R
    Sampling rate               : 48.0 kHz
    Frame rate                  : 46.875 FPS (1024 spf)
    Compression mode            : Lossy
    Stream size                 : 33.7 MiB (1%)
    Default                     : Yes
    Alternate group             : 1
    Tagged date                 : UTC 2014-02-14 02:32:57
    
    Other #1
    ID                          : 65536
    Type                        : Hint
    Format                      : RTP
    Codec ID                    : rtp 
    Duration                    : 36 min 48 s
    Encoded date                : UTC 2014-02-14 02:32:47
    Tagged date                 : UTC 2014-02-14 02:32:57
    
    Other #2
    ID                          : 65537
    Type                        : Hint
    Format                      : RTP
    Codec ID                    : rtp 
    Duration                    : 36 min 48 s
    Encoded date                : UTC 2014-02-14 02:32:55
    Tagged date                 : UTC 2014-02-14 02:32:57
    Bit rate mode               : VBR
    
    Pass giải nén (Extract rar): DRWM5UHP
    Direct link:
    Mã:
    https://www.fshare.vn/file/XQPYF1JBO8RX
     
  13. noelhao

    noelhao Ultra HD4K Thành viên BQT

    Bài viết:
    5,664
    Đã được thích:
    462
    BRAZZERS - 121 - Super Nurse 2016 - Kagney Linn Karter & Danny D 1080p WEB-DL

    [​IMG]

    Screenshot:


    [​IMG]

    Mediainfo:
    Mã:
    121 - Super Nurse 2016 - Kagney Linn Karter & Danny D.mp4
    Format                      : MPEG-4
    Format profile              : Base Media
    Codec ID                    : isom (isom/iso2/avc1/mp41)
    File size                   : 3.27 GiB
    Duration                    : 37 min 23 s
    Overall bit rate            : 12.5 Mb/s
    Writing application         : Lavf57.28.100
    
    Video
    ID                          : 1
    Format                      : AVC
    Format/Info                 : Advanced Video Codec
    Format profile              : [email protected]
    Format settings, CABAC      : Yes
    Format settings, ReFrames   : 5 frames
    Codec ID                    : avc1
    Codec ID/Info               : Advanced Video Coding
    Duration                    : 37 min 23 s
    Bit rate                    : 12.0 Mb/s
    Width                       : 1 920 pixels
    Height                      : 1 080 pixels
    Display aspect ratio        : 16:9
    Frame rate mode             : Constant
    Frame rate                  : 23.976 (23976/1000) FPS
    Color space                 : YUV
    Chroma subsampling          : 4:2:0
    Bit depth                   : 8 bits
    Scan type                   : Progressive
    Bits/(Pixel*Frame)          : 0.241
    Stream size                 : 3.11 GiB (95%)
    Writing library             : x264 core 148 r2665 a01e339
    Encoding settings           : cabac=1 / ref=5 / deblock=1:0:0 / analyse=0x3:0x113 / me=umh / subme=8 / psy=1 / psy_rd=1.00:0.00 / mixed_ref=1 / me_range=16 / chroma_me=1 / trellis=1 / 8x8dct=1 / cqm=0 / deadzone=21,11 / fast_pskip=1 / chroma_qp_offset=-2 / threads=34 / lookahead_threads=5 / sliced_threads=0 / nr=0 / decimate=1 / interlaced=0 / bluray_compat=0 / constrained_intra=0 / bframes=3 / b_pyramid=2 / b_adapt=2 / b_bias=0 / direct=3 / weightb=1 / open_gop=0 / weightp=2 / keyint=60 / keyint_min=6 / scenecut=40 / intra_refresh=0 / rc_lookahead=50 / rc=abr / mbtree=1 / bitrate=12000 / ratetol=1.0 / qcomp=0.60 / qpmin=0 / qpmax=69 / qpstep=4 / ip_ratio=1.40 / aq=1:1.00
    Language                    : English
    Tagged date                 : UTC 2016-04-22 17:39:07
    
    Audio
    ID                          : 2
    Format                      : AAC
    Format/Info                 : Advanced Audio Codec
    Format profile              : LC
    Codec ID                    : 40
    Duration                    : 37 min 23 s
    Duration_LastFrame          : 21 ms
    Bit rate mode               : Constant
    Bit rate                    : 128 kb/s
    Channel(s)                  : 2 channels
    Channel positions           : Front: L R
    Sampling rate               : 48.0 kHz
    Frame rate                  : 46.875 FPS (1024 spf)
    Compression mode            : Lossy
    Stream size                 : 34.3 MiB (1%)
    Language                    : English
    Default                     : Yes
    Alternate group             : 1
    Tagged date                 : UTC 2016-04-22 17:39:07
    
    Other #1
    ID                          : 65536
    Type                        : Hint
    Format                      : RTP
    Codec ID                    : rtp 
    Duration                    : 37 min 23 s
    Encoded date                : UTC 2016-04-22 17:38:56
    Tagged date                 : UTC 2016-04-22 17:39:07
    
    Other #2
    ID                          : 65537
    Type                        : Hint
    Format                      : RTP
    Codec ID                    : rtp 
    Duration                    : 37 min 23 s
    Encoded date                : UTC 2016-04-22 17:39:05
    Tagged date                 : UTC 2016-04-22 17:39:07
    Bit rate mode               : VBR
    
    Pass giải nén (Extract rar): 9ZZGPPZX
    Direct link:
    Mã:
    https://www.fshare.vn/file/AU62GTHONZQH
     
  14. noelhao

    noelhao Ultra HD4K Thành viên BQT

    Bài viết:
    5,664
    Đã được thích:
    462
    BRAZZERS - 122 - Anal Fun With Kagney's Buns 2016 - Kagney Linn Karter & Keiran Lee 1080p WEB-DL

    [​IMG]

    Screenshot:


    [​IMG]

    Mediainfo:
    Mã:
    122 - Anal Fun With Kagney's Buns 2016 - Kagney Linn Karter & Keiran Lee.mp4
    Format                      : MPEG-4
    Format profile              : Base Media
    Codec ID                    : isom (isom/iso2/avc1/mp41)
    File size                   : 2.52 GiB
    Duration                    : 30 min 3 s
    Overall bit rate            : 12.0 Mb/s
    Writing application         : Lavf57.28.100
    
    Video
    ID                          : 1
    Format                      : AVC
    Format/Info                 : Advanced Video Codec
    Format profile              : [email protected]
    Format settings, CABAC      : Yes
    Format settings, ReFrames   : 5 frames
    Codec ID                    : avc1
    Codec ID/Info               : Advanced Video Coding
    Duration                    : 30 min 3 s
    Bit rate                    : 12.0 Mb/s
    Width                       : 1 920 pixels
    Height                      : 1 080 pixels
    Display aspect ratio        : 16:9
    Frame rate mode             : Constant
    Frame rate                  : 23.976 (23976/1000) FPS
    Color space                 : YUV
    Chroma subsampling          : 4:2:0
    Bit depth                   : 8 bits
    Scan type                   : Progressive
    Bits/(Pixel*Frame)          : 0.241
    Stream size                 : 2.49 GiB (99%)
    Writing library             : x264 core 148 r2665 a01e339
    Encoding settings           : cabac=1 / ref=5 / deblock=1:0:0 / analyse=0x3:0x113 / me=umh / subme=8 / psy=1 / psy_rd=1.00:0.00 / mixed_ref=1 / me_range=16 / chroma_me=1 / trellis=1 / 8x8dct=1 / cqm=0 / deadzone=21,11 / fast_pskip=1 / chroma_qp_offset=-2 / threads=18 / lookahead_threads=3 / sliced_threads=0 / nr=0 / decimate=1 / interlaced=0 / bluray_compat=0 / constrained_intra=0 / bframes=3 / b_pyramid=2 / b_adapt=2 / b_bias=0 / direct=3 / weightb=1 / open_gop=0 / weightp=2 / keyint=60 / keyint_min=6 / scenecut=40 / intra_refresh=0 / rc_lookahead=50 / rc=abr / mbtree=1 / bitrate=12000 / ratetol=1.0 / qcomp=0.60 / qpmin=0 / qpmax=69 / qpstep=4 / ip_ratio=1.40 / aq=1:1.00
    Language                    : English
    Tagged date                 : UTC 2016-07-14 04:51:35
    
    Audio
    ID                          : 2
    Format                      : AAC
    Format/Info                 : Advanced Audio Codec
    Format profile              : LC
    Codec ID                    : 40
    Duration                    : 30 min 3 s
    Duration_LastFrame          : 21 ms
    Bit rate mode               : Constant
    Bit rate                    : 128 kb/s
    Channel(s)                  : 2 channels
    Channel positions           : Front: L R
    Sampling rate               : 48.0 kHz
    Frame rate                  : 46.875 FPS (1024 spf)
    Compression mode            : Lossy
    Stream size                 : 27.6 MiB (1%)
    Language                    : English
    Default                     : Yes
    Alternate group             : 1
    Tagged date                 : UTC 2016-07-14 04:51:35
    
    Pass giải nén (Extract rar): XWJ5HOFQ
    Direct link:
    Mã:
    https://www.fshare.vn/file/7M6RZH5ZBA94
     
  15. noelhao

    noelhao Ultra HD4K Thành viên BQT

    Bài viết:
    5,664
    Đã được thích:
    462
    BRAZZERS - 123 - Hot, Bothered & Horny 2016 - Kagney Linn Karter & Michael Vegas 1080p WEB-DL

    [​IMG]

    Screenshot:


    [​IMG]

    Mediainfo:
    Mã:
    123 - Hot, Bothered & Horny 2016 - Kagney Linn Karter & Michael Vegas.mp4
    Format                      : MPEG-4
    Format profile              : Base Media
    Codec ID                    : isom (isom/iso2/avc1/mp41)
    File size                   : 2.98 GiB
    Duration                    : 35 min 11 s
    Overall bit rate            : 12.1 Mb/s
    Writing application         : Lavf57.28.100
    
    Video
    ID                          : 1
    Format                      : AVC
    Format/Info                 : Advanced Video Codec
    Format profile              : [email protected]
    Format settings, CABAC      : Yes
    Format settings, ReFrames   : 5 frames
    Codec ID                    : avc1
    Codec ID/Info               : Advanced Video Coding
    Duration                    : 35 min 11 s
    Source duration             : 35 min 11 s
    Bit rate                    : 12.0 Mb/s
    Width                       : 1 920 pixels
    Height                      : 1 080 pixels
    Display aspect ratio        : 16:9
    Frame rate mode             : Constant
    Frame rate                  : 23.976 (23976/1000) FPS
    Color space                 : YUV
    Chroma subsampling          : 4:2:0
    Bit depth                   : 8 bits
    Scan type                   : Progressive
    Bits/(Pixel*Frame)          : 0.241
    Stream size                 : 2.83 GiB (95%)
    Source stream size          : 2.94 GiB (99%)
    Writing library             : x264 core 148 r2665 a01e339
    Encoding settings           : cabac=1 / ref=5 / deblock=1:0:0 / analyse=0x3:0x113 / me=umh / subme=8 / psy=1 / psy_rd=1.00:0.00 / mixed_ref=1 / me_range=16 / chroma_me=1 / trellis=1 / 8x8dct=1 / cqm=0 / deadzone=21,11 / fast_pskip=1 / chroma_qp_offset=-2 / threads=18 / lookahead_threads=3 / sliced_threads=0 / nr=0 / decimate=1 / interlaced=0 / bluray_compat=0 / constrained_intra=0 / bframes=3 / b_pyramid=2 / b_adapt=2 / b_bias=0 / direct=3 / weightb=1 / open_gop=0 / weightp=2 / keyint=60 / keyint_min=6 / scenecut=40 / intra_refresh=0 / rc_lookahead=50 / rc=abr / mbtree=1 / bitrate=12000 / ratetol=1.0 / qcomp=0.60 / qpmin=0 / qpmax=69 / qpstep=4 / ip_ratio=1.40 / aq=1:1.00
    Language                    : English
    Tagged date                 : UTC 2016-08-16 21:01:05
    
    Audio
    ID                          : 2
    Format                      : AAC
    Format/Info                 : Advanced Audio Codec
    Format profile              : LC
    Codec ID                    : 40
    Duration                    : 35 min 11 s
    Bit rate mode               : Constant
    Bit rate                    : 128 kb/s
    Channel(s)                  : 2 channels
    Channel positions           : Front: L R
    Sampling rate               : 48.0 kHz
    Frame rate                  : 46.875 FPS (1024 spf)
    Compression mode            : Lossy
    Stream size                 : 32.2 MiB (1%)
    Language                    : English
    Default                     : Yes
    Alternate group             : 1
    Tagged date                 : UTC 2016-08-16 21:01:05
    
    Pass giải nén (Extract rar): Q6AIDCER
    Direct link:
    Mã:
    https://www.fshare.vn/file/ENRLDUTAOCEN
     
  16. noelhao

    noelhao Ultra HD4K Thành viên BQT

    Bài viết:
    5,664
    Đã được thích:
    462
    BRAZZERS - 124 - Massaging My Stepmom 2016 - Alexis Fawx & Xander Corvus 1080p WEB-DL

    [​IMG]

    Screenshot:


    [​IMG]

    Mediainfo:
    Mã:
    124 - Massaging My Stepmom 2016 - Alexis Fawx & Xander Corvus.mp4
    Format                      : MPEG-4
    Format profile              : Base Media
    Codec ID                    : isom (isom/iso2/avc1/mp41)
    File size                   : 2.84 GiB
    Duration                    : 33 min 22 s
    Overall bit rate            : 12.2 Mb/s
    Writing application         : Lavf57.28.100
    
    Video
    ID                          : 1
    Format                      : AVC
    Format/Info                 : Advanced Video Codec
    Format profile              : [email protected]
    Format settings, CABAC      : Yes
    Format settings, ReFrames   : 5 frames
    Codec ID                    : avc1
    Codec ID/Info               : Advanced Video Coding
    Duration                    : 33 min 22 s
    Source duration             : 33 min 22 s
    Bit rate                    : 12.0 Mb/s
    Width                       : 1 920 pixels
    Height                      : 1 080 pixels
    Display aspect ratio        : 16:9
    Frame rate mode             : Constant
    Frame rate                  : 23.976 (23976/1000) FPS
    Color space                 : YUV
    Chroma subsampling          : 4:2:0
    Bit depth                   : 8 bits
    Scan type                   : Progressive
    Bits/(Pixel*Frame)          : 0.241
    Stream size                 : 2.69 GiB (95%)
    Source stream size          : 2.81 GiB (99%)
    Writing library             : x264 core 148 r2665 a01e339
    Encoding settings           : cabac=1 / ref=5 / deblock=1:0:0 / analyse=0x3:0x113 / me=umh / subme=8 / psy=1 / psy_rd=1.00:0.00 / mixed_ref=1 / me_range=16 / chroma_me=1 / trellis=1 / 8x8dct=1 / cqm=0 / deadzone=21,11 / fast_pskip=1 / chroma_qp_offset=-2 / threads=18 / lookahead_threads=3 / sliced_threads=0 / nr=0 / decimate=1 / interlaced=0 / bluray_compat=0 / constrained_intra=0 / bframes=3 / b_pyramid=2 / b_adapt=2 / b_bias=0 / direct=3 / weightb=1 / open_gop=0 / weightp=2 / keyint=60 / keyint_min=6 / scenecut=40 / intra_refresh=0 / rc_lookahead=50 / rc=abr / mbtree=1 / bitrate=12000 / ratetol=1.0 / qcomp=0.60 / qpmin=0 / qpmax=69 / qpstep=4 / ip_ratio=1.40 / aq=1:1.00
    Language                    : English
    Tagged date                 : UTC 2016-09-21 04:54:48
    
    Audio
    ID                          : 2
    Format                      : AAC
    Format/Info                 : Advanced Audio Codec
    Format profile              : LC
    Codec ID                    : 40
    Duration                    : 33 min 22 s
    Bit rate mode               : Constant
    Bit rate                    : 129 kb/s
    Channel(s)                  : 2 channels
    Channel positions           : Front: L R
    Sampling rate               : 48.0 kHz
    Frame rate                  : 46.875 FPS (1024 spf)
    Compression mode            : Lossy
    Stream size                 : 30.7 MiB (1%)
    Language                    : English
    Default                     : Yes
    Alternate group             : 1
    Tagged date                 : UTC 2016-09-21 04:54:48
    
    Pass giải nén (Extract rar): 2AKP5S22
    Direct link:
    Mã:
    https://www.fshare.vn/file/BBCGY7VKWLXN
     
  17. noelhao

    noelhao Ultra HD4K Thành viên BQT

    Bài viết:
    5,664
    Đã được thích:
    462
    BRAZZERS - 125 - Coochie Monster Lessons 2010 - Lexi Stone & Sunny Leone 1080p WEB-DL

    [​IMG]

    Screenshot:


    [​IMG]

    Mediainfo:
    Mã:
    125 - Coochie Monster Lessons 2010 - Lexi Stone & Sunny Leone.mp4
    Format                      : MPEG-4
    Format profile              : Base Media
    Codec ID                    : isom (isom/iso2/avc1/mp41)
    File size                   : 2.55 GiB
    Duration                    : 28 min 55 s
    Overall bit rate            : 12.6 Mb/s
    Writing application         : Lavf54.37.100
    
    Video
    ID                          : 1
    Format                      : AVC
    Format/Info                 : Advanced Video Codec
    Format profile              : [email protected]
    Format settings, CABAC      : Yes
    Format settings, ReFrames   : 5 frames
    Codec ID                    : avc1
    Codec ID/Info               : Advanced Video Coding
    Duration                    : 28 min 55 s
    Bit rate                    : 12.0 Mb/s
    Width                       : 1 920 pixels
    Height                      : 1 080 pixels
    Display aspect ratio        : 16:9
    Frame rate mode             : Constant
    Frame rate                  : 29.970 (29970/1000) FPS
    Color space                 : YUV
    Chroma subsampling          : 4:2:0
    Bit depth                   : 8 bits
    Scan type                   : Progressive
    Bits/(Pixel*Frame)          : 0.193
    Stream size                 : 2.42 GiB (95%)
    Writing library             : x264 core 128 r2216 198a7ea
    Encoding settings           : cabac=1 / ref=5 / deblock=1:0:0 / analyse=0x3:0x113 / me=umh / subme=8 / psy=1 / psy_rd=1.00:0.00 / mixed_ref=1 / me_range=16 / chroma_me=1 / trellis=1 / 8x8dct=1 / cqm=0 / deadzone=21,11 / fast_pskip=1 / chroma_qp_offset=-2 / threads=12 / lookahead_threads=2 / sliced_threads=0 / nr=0 / decimate=1 / interlaced=0 / bluray_compat=0 / constrained_intra=0 / bframes=3 / b_pyramid=2 / b_adapt=2 / b_bias=0 / direct=3 / weightb=1 / open_gop=0 / weightp=2 / keyint=60 / keyint_min=6 / scenecut=40 / intra_refresh=0 / rc_lookahead=50 / rc=abr / mbtree=1 / bitrate=12000 / ratetol=1.0 / qcomp=0.60 / qpmin=0 / qpmax=69 / qpstep=4 / ip_ratio=1.40 / aq=1:1.00
    Tagged date                 : UTC 2013-10-30 09:12:03
    
    Audio
    ID                          : 2
    Format                      : AAC
    Format/Info                 : Advanced Audio Codec
    Format profile              : LC
    Codec ID                    : 40
    Duration                    : 28 min 55 s
    Duration_LastFrame          : 33 ms
    Bit rate mode               : Constant
    Bit rate                    : 128 kb/s
    Channel(s)                  : 2 channels
    Channel positions           : Front: L R
    Sampling rate               : 48.0 kHz
    Frame rate                  : 46.875 FPS (1024 spf)
    Compression mode            : Lossy
    Stream size                 : 26.5 MiB (1%)
    Default                     : Yes
    Alternate group             : 1
    Tagged date                 : UTC 2013-10-30 09:12:03
    
    Other #1
    ID                          : 65536
    Type                        : Hint
    Format                      : RTP
    Codec ID                    : rtp 
    Duration                    : 28 min 55 s
    Encoded date                : UTC 2013-10-30 09:11:55
    Tagged date                 : UTC 2013-10-30 09:12:03
    
    Other #2
    ID                          : 65537
    Type                        : Hint
    Format                      : RTP
    Codec ID                    : rtp 
    Duration                    : 28 min 55 s
    Encoded date                : UTC 2013-10-30 09:12:02
    Tagged date                 : UTC 2013-10-30 09:12:03
    Bit rate mode               : VBR
    
    Pass giải nén (Extract rar): 2ZH2B7XF
    Direct link:
    Mã:
    https://www.fshare.vn/file/RGSAQLG8HIS6
     
  18. noelhao

    noelhao Ultra HD4K Thành viên BQT

    Bài viết:
    5,664
    Đã được thích:
    462
    BRAZZERS - 126 - Indiscreción 2016 - Christy Mack & Madison Ivy & Johnny Sins 1080p WEB-DL

    [​IMG]

    Screenshot:


    [​IMG]

    Mediainfo:
    Mã:
    126 - Indiscreción 2016 - Christy Mack & Madison Ivy & Johnny Sins.mp4
    Format                      : MPEG-4
    Format profile              : Base Media
    Codec ID                    : isom (isom/iso2/avc1/mp41)
    File size                   : 4.08 GiB
    Duration                    : 46 min 24 s
    Overall bit rate            : 12.6 Mb/s
    Writing application         : Lavf55.1.100
    
    Video
    ID                          : 1
    Format                      : AVC
    Format/Info                 : Advanced Video Codec
    Format profile              : [email protected]
    Format settings, CABAC      : Yes
    Format settings, ReFrames   : 5 frames
    Codec ID                    : avc1
    Codec ID/Info               : Advanced Video Coding
    Duration                    : 46 min 23 s
    Bit rate                    : 12.0 Mb/s
    Width                       : 1 920 pixels
    Height                      : 1 080 pixels
    Display aspect ratio        : 16:9
    Frame rate mode             : Constant
    Frame rate                  : 29.970 (29970/1000) FPS
    Color space                 : YUV
    Chroma subsampling          : 4:2:0
    Bit depth                   : 8 bits
    Scan type                   : Progressive
    Bits/(Pixel*Frame)          : 0.193
    Stream size                 : 3.88 GiB (95%)
    Writing library             : x264 core 130 r2274 c832fe9
    Encoding settings           : cabac=1 / ref=5 / deblock=1:0:0 / analyse=0x3:0x113 / me=umh / subme=8 / psy=1 / psy_rd=1.00:0.00 / mixed_ref=1 / me_range=16 / chroma_me=1 / trellis=1 / 8x8dct=1 / cqm=0 / deadzone=21,11 / fast_pskip=1 / chroma_qp_offset=-2 / threads=48 / lookahead_threads=8 / sliced_threads=0 / nr=0 / decimate=1 / interlaced=0 / bluray_compat=0 / constrained_intra=0 / bframes=3 / b_pyramid=2 / b_adapt=2 / b_bias=0 / direct=3 / weightb=1 / open_gop=0 / weightp=2 / keyint=60 / keyint_min=6 / scenecut=40 / intra_refresh=0 / rc_lookahead=50 / rc=abr / mbtree=1 / bitrate=12000 / ratetol=1.0 / qcomp=0.60 / qpmin=0 / qpmax=69 / qpstep=4 / ip_ratio=1.40 / aq=1:1.00
    Language                    : English
    Tagged date                 : UTC 2016-01-09 00:35:49
    
    Audio
    ID                          : 2
    Format                      : AAC
    Format/Info                 : Advanced Audio Codec
    Format profile              : LC
    Codec ID                    : 40
    Duration                    : 46 min 24 s
    Duration_LastFrame          : 33 ms
    Bit rate mode               : Constant
    Bit rate                    : 128 kb/s
    Channel(s)                  : 2 channels
    Channel positions           : Front: L R
    Sampling rate               : 48.0 kHz
    Frame rate                  : 46.875 FPS (1024 spf)
    Compression mode            : Lossy
    Stream size                 : 42.5 MiB (1%)
    Language                    : English
    Default                     : Yes
    Alternate group             : 1
    Tagged date                 : UTC 2016-01-09 00:35:49
    
    Other #1
    ID                          : 65536
    Type                        : Hint
    Format                      : RTP
    Codec ID                    : rtp 
    Duration                    : 46 min 23 s
    Encoded date                : UTC 2016-01-09 00:35:39
    Tagged date                 : UTC 2016-01-09 00:35:49
    
    Other #2
    ID                          : 65537
    Type                        : Hint
    Format                      : RTP
    Codec ID                    : rtp 
    Duration                    : 46 min 24 s
    Encoded date                : UTC 2016-01-09 00:35:48
    Tagged date                 : UTC 2016-01-09 00:35:49
    Bit rate mode               : VBR
    
    Pass giải nén (Extract rar): KMOUZSUZ
    Direct link:
    Mã:
    https://www.fshare.vn/file/EP6FC5GJ4MIH
     
  19. noelhao

    noelhao Ultra HD4K Thành viên BQT

    Bài viết:
    5,664
    Đã được thích:
    462
    BRAZZERS - 127 - Regaño Sexual de la Jefa 2016 - Madison Ivy & Keiran Lee 1080p WEB-DL

    [​IMG]

    Screenshot:


    [​IMG]

    Mediainfo:
    Mã:
    127 - Regaño Sexual de la Jefa 2016 - Madison Ivy & Keiran Lee.mp4
    Format                      : MPEG-4
    Format profile              : Base Media
    Codec ID                    : isom (isom/iso2/avc1/mp41)
    File size                   : 2.92 GiB
    Duration                    : 33 min 7 s
    Overall bit rate            : 12.6 Mb/s
    Writing application         : Lavf55.1.100
    
    Video
    ID                          : 1
    Format                      : AVC
    Format/Info                 : Advanced Video Codec
    Format profile              : [email protected]
    Format settings, CABAC      : Yes
    Format settings, ReFrames   : 5 frames
    Codec ID                    : avc1
    Codec ID/Info               : Advanced Video Coding
    Duration                    : 33 min 7 s
    Bit rate                    : 12.0 Mb/s
    Width                       : 1 920 pixels
    Height                      : 1 080 pixels
    Display aspect ratio        : 16:9
    Frame rate mode             : Constant
    Frame rate                  : 29.970 (29970/1000) FPS
    Color space                 : YUV
    Chroma subsampling          : 4:2:0
    Bit depth                   : 8 bits
    Scan type                   : Progressive
    Bits/(Pixel*Frame)          : 0.193
    Stream size                 : 2.77 GiB (95%)
    Writing library             : x264 core 130 r2274 c832fe9
    Encoding settings           : cabac=1 / ref=5 / deblock=1:0:0 / analyse=0x3:0x113 / me=umh / subme=8 / psy=1 / psy_rd=1.00:0.00 / mixed_ref=1 / me_range=16 / chroma_me=1 / trellis=1 / 8x8dct=1 / cqm=0 / deadzone=21,11 / fast_pskip=1 / chroma_qp_offset=-2 / threads=48 / lookahead_threads=8 / sliced_threads=0 / nr=0 / decimate=1 / interlaced=0 / bluray_compat=0 / constrained_intra=0 / bframes=3 / b_pyramid=2 / b_adapt=2 / b_bias=0 / direct=3 / weightb=1 / open_gop=0 / weightp=2 / keyint=60 / keyint_min=6 / scenecut=40 / intra_refresh=0 / rc_lookahead=50 / rc=abr / mbtree=1 / bitrate=12000 / ratetol=1.0 / qcomp=0.60 / qpmin=0 / qpmax=69 / qpstep=4 / ip_ratio=1.40 / aq=1:1.00
    Language                    : English
    Tagged date                 : UTC 2016-01-08 18:53:19
    
    Audio
    ID                          : 2
    Format                      : AAC
    Format/Info                 : Advanced Audio Codec
    Format profile              : LC
    Codec ID                    : 40
    Duration                    : 33 min 7 s
    Duration_LastFrame          : 33 ms
    Bit rate mode               : Constant
    Bit rate                    : 128 kb/s
    Channel(s)                  : 2 channels
    Channel positions           : Front: L R
    Sampling rate               : 48.0 kHz
    Frame rate                  : 46.875 FPS (1024 spf)
    Compression mode            : Lossy
    Stream size                 : 30.3 MiB (1%)
    Language                    : English
    Default                     : Yes
    Alternate group             : 1
    Tagged date                 : UTC 2016-01-08 18:53:19
    
    Other #1
    ID                          : 65536
    Type                        : Hint
    Format                      : RTP
    Codec ID                    : rtp 
    Duration                    : 33 min 7 s
    Encoded date                : UTC 2016-01-08 18:53:12
    Tagged date                 : UTC 2016-01-08 18:53:19
    
    Other #2
    ID                          : 65537
    Type                        : Hint
    Format                      : RTP
    Codec ID                    : rtp 
    Duration                    : 33 min 7 s
    Encoded date                : UTC 2016-01-08 18:53:18
    Tagged date                 : UTC 2016-01-08 18:53:19
    Bit rate mode               : VBR
    
    Pass giải nén (Extract rar): Z1GXGOZO
    Direct link:
    Mã:
    https://www.fshare.vn/file/1P9U8CQFNPDD
     
  20. noelhao

    noelhao Ultra HD4K Thành viên BQT

    Bài viết:
    5,664
    Đã được thích:
    462
    BRAZZERS - 128 - Sharing The Shower 2 2016 1080p WEB-DL

    [​IMG]

    Screenshot:


    [​IMG]

    Mediainfo:
    Mã:
    128 - Sharing The Shower 2 2016.mp4
    Format                      : MPEG-4
    Format profile              : Base Media
    Codec ID                    : isom (isom/iso2/avc1/mp41)
    File size                   : 3.11 GiB
    Duration                    : 36 min 44 s
    Overall bit rate            : 12.1 Mb/s
    Writing application         : Lavf57.28.100
    
    Video
    ID                          : 1
    Format                      : AVC
    Format/Info                 : Advanced Video Codec
    Format profile              : [email protected]
    Format settings, CABAC      : Yes
    Format settings, ReFrames   : 5 frames
    Codec ID                    : avc1
    Codec ID/Info               : Advanced Video Coding
    Duration                    : 36 min 44 s
    Bit rate                    : 12.0 Mb/s
    Width                       : 1 920 pixels
    Height                      : 1 080 pixels
    Display aspect ratio        : 16:9
    Frame rate mode             : Constant
    Frame rate                  : 23.976 (23976/1000) FPS
    Color space                 : YUV
    Chroma subsampling          : 4:2:0
    Bit depth                   : 8 bits
    Scan type                   : Progressive
    Bits/(Pixel*Frame)          : 0.241
    Stream size                 : 3.08 GiB (99%)
    Writing library             : x264 core 148 r2665 a01e339
    Encoding settings           : cabac=1 / ref=5 / deblock=1:0:0 / analyse=0x3:0x113 / me=umh / subme=8 / psy=1 / psy_rd=1.00:0.00 / mixed_ref=1 / me_range=16 / chroma_me=1 / trellis=1 / 8x8dct=1 / cqm=0 / deadzone=21,11 / fast_pskip=1 / chroma_qp_offset=-2 / threads=18 / lookahead_threads=3 / sliced_threads=0 / nr=0 / decimate=1 / interlaced=0 / bluray_compat=0 / constrained_intra=0 / bframes=3 / b_pyramid=2 / b_adapt=2 / b_bias=0 / direct=3 / weightb=1 / open_gop=0 / weightp=2 / keyint=60 / keyint_min=6 / scenecut=40 / intra_refresh=0 / rc_lookahead=50 / rc=abr / mbtree=1 / bitrate=12000 / ratetol=1.0 / qcomp=0.60 / qpmin=0 / qpmax=69 / qpstep=4 / ip_ratio=1.40 / aq=1:1.00
    Language                    : English
    Tagged date                 : UTC 2016-06-25 19:31:13
    
    Audio
    ID                          : 2
    Format                      : AAC
    Format/Info                 : Advanced Audio Codec
    Format profile              : LC
    Codec ID                    : 40
    Duration                    : 36 min 44 s
    Duration_LastFrame          : 21 ms
    Bit rate mode               : Constant
    Bit rate                    : 128 kb/s
    Channel(s)                  : 2 channels
    Channel positions           : Front: L R
    Sampling rate               : 48.0 kHz
    Frame rate                  : 46.875 FPS (1024 spf)
    Compression mode            : Lossy
    Stream size                 : 33.6 MiB (1%)
    Language                    : English
    Default                     : Yes
    Alternate group             : 1
    Tagged date                 : UTC 2016-06-25 19:31:13
    
    Pass giải nén (Extract rar): MLIMKODQ
    Direct link:
    Mã:
    https://www.fshare.vn/file/7FBZRMKM8YU3
     
Đang tải...
Similar Threads Diễn đàn Date
Collections Movies DVD, HD 720p 1080p[Fshare&torent] Phim Sex Âu Mỹ - Western Porn - Direct Fast Link 11/10/14
[Torrent]Riley.Steele.Roommate[HD/4.37GB] Phim Sex Âu Mỹ - Western Porn - Direct Fast Link 16/9/13
Tarra White [720p - 878Mb] Phim Sex Âu Mỹ - Western Porn - Direct Fast Link 2/12/12
Pirates XXX I - Cướp biển vùng Carribean - Sub Việt - Bản DVD Phim Sex Âu Mỹ - Western Porn - Direct Fast Link 8/8/09
10 DVD Lovers Guide-Bí quyết hạnh phúc gia đình Phim Sex Âu Mỹ - Western Porn - Direct Fast Link 4/4/09

Chia sẻ trang này