1. Hiện tại có nhiều bạn ko nhận được Email kích hoạt từ hệ thống, BQT đã rà soát và thấy đa số các trường hợp này dùng GMAIL. Trong thời gian chờ khắc phục, các bạn có thể tạm dùng các email khác để đăng ký và nhận email kích hoạt ( Yahoo, hotmail,....). Xin cảm ơn
    Dismiss Notice

Collections Movies DVD, HD 720p 1080p[Fshare]

Thảo luận trong 'Phim Sex Âu Mỹ - Western Porn - Direct Fast Link' bắt đầu bởi noelhao, 15/10/14.

  1. orionchipchip

    orionchipchip Thiếu Gia Lầu Xanh Verified

    Bài viết:
    638
    Đã được thích:
    20
    [​IMG][/IMG] [​IMG]

    Bác noelhao cho hỏi sao mình down phim về rồi copy pass của bác vào lại hiện ra ô này, k giải nén phim được
     
    devilbat15 thích bài này.
  2. noelhao

    noelhao Ultra HD4K Thành viên BQT

    Bài viết:
    6,615
    Đã được thích:
    1,483
    [​IMG]

    Mình đã download và giải nén OK. Có lẽ bạn nhập sai pass hoặc là file bị lỗi khi bạn down về. Thử nhập pass lại cho chính xác ( NANCLR53 ), nên copy paste nhưng lưu ý khi bôi đen để copy không thừa khoảng trống đầu và cuối của pass. Nếu vẫn không được thì down lại :p
     
    hieu-dinh thích bài này.
  3. Fakeacc7991

    Fakeacc7991 Còn Bú Sữa Mẹ

    Bài viết:
    5
    Đã được thích:
    2
    Bác có thể tìm giúp em phim này được không ạ? Đây là phim 18+ thôi nhưng em thấy kết quá! Lần đầu nhờ bác, mong bác giúp đỡ!
     
    Last edited by a moderator: 17/6/17
  4. hieu-dinh

    hieu-dinh Còn Bú Sữa Mẹ Verified

    Bài viết:
    2
    Đã được thích:
    0
    Page 79 có phim này mình rất thích tìm lâu lắm rồi, nhưng download về hình như sai pass bạn ơi giải nén không được. Mình cũng đã tải đi tải lại 3 4 lần rồi nhưng kết quả vẫn vậy. Bạn check lại và up lại giúp mình nhé. Mình rất cảm kích.

    Mã:
    Testing archive MFWWBlanche2013.rar
    
    Testing     Mofos.com - Blanche Bradburry - Mofos World Wide 05.25.2013.mp4  9% 
    Checksum error in the encrypted file Mofos.com - Blanche Bradburry - Mofos World Wide 05.25.2013.mp4. Corrupt file or wrong password.
    Total errors: 1
    
     
    Chỉnh sửa cuối: 14/6/17
  5. noelhao

    noelhao Ultra HD4K Thành viên BQT

    Bài viết:
    6,615
    Đã được thích:
    1,483
    Link fixed!

    Mã:
    https://www.fshare.vn/file/MQH1B928NESG
     
    hieu-dinh thích bài này.
  6. noelhao

    noelhao Ultra HD4K Thành viên BQT

    Bài viết:
    6,615
    Đã được thích:
    1,483
    Digital Playground - Madison Ivy's Yearbook 2016 1080p WEB-DL

    [​IMG]

    Screenshot:


    [​IMG]

    Mediainfo:
    Mã:
    Digital Playground - Madison Ivy's Yearbook 2016 1080p WEB-DL.mp4
    Format                      : MPEG-4
    Format profile              : Base Media
    Codec ID                    : isom (isom/iso2/avc1/mp41)
    File size                   : 9.11 GiB
    Duration                    : 3 h 10 min
    Overall bit rate            : 6 840 kb/s
    Writing application         : XviD4PSP 7.0.207
    
    Video
    ID                          : 1
    Format                      : AVC
    Format/Info                 : Advanced Video Codec
    Format profile              : [email protected]
    Format settings, CABAC      : No
    Format settings, ReFrames   : 1 frame
    Codec ID                    : avc1
    Codec ID/Info               : Advanced Video Coding
    Duration                    : 3 h 10 min
    Bit rate                    : 6 800 kb/s
    Width                       : 1 920 pixels
    Height                      : 1 080 pixels
    Display aspect ratio        : 16:9
    Frame rate mode             : Constant
    Frame rate                  : 29.970 (30000/1001) FPS
    Color space                 : YUV
    Chroma subsampling          : 4:2:0
    Bit depth                   : 8 bits
    Scan type                   : Progressive
    Bits/(Pixel*Frame)          : 0.109
    Stream size                 : 8.94 GiB (98%)
    Writing library             : x264 core 148 r2638M 7599210
    Encoding settings           : cabac=0 / ref=1 / deblock=0:-6:-6 / analyse=0x3:0 / me=dia / subme=0 / psy=1 / psy_rd=1.00:0.00 / mixed_ref=0 / me_range=16 / chroma_me=1 / trellis=0 / 8x8dct=1 / cqm=0 / deadzone=21,11 / fast_pskip=1 / chroma_qp_offset=0 / threads=5 / lookahead_threads=1 / sliced_threads=0 / nr=0 / decimate=1 / interlaced=0 / bluray_compat=0 / constrained_intra=0 / bframes=0 / weightp=0 / keyint=250 / keyint_min=25 / scenecut=0 / intra_refresh=0 / rc_lookahead=0 / rc=cbr / mbtree=0 / bitrate=6800 / ratetol=1.0 / qcomp=0.60 / qpmin=0 / qpmax=69 / qpstep=4 / vbv_maxrate=6800 / vbv_bufsize=3600 / nal_hrd=none / filler=0 / ip_ratio=1.40 / aq=0
    
    Audio
    ID                          : 2
    Format                      : AAC
    Format/Info                 : Advanced Audio Codec
    Format profile              : LC
    Codec ID                    : 40
    Duration                    : 3 h 10 min
    Bit rate mode               : Constant
    Bit rate                    : 123 kb/s
    Channel(s)                  : 2 channels
    Channel positions           : Front: L R
    Sampling rate               : 48.0 kHz
    Frame rate                  : 46.875 FPS (1024 spf)
    Compression mode            : Lossy
    Stream size                 : 168 MiB (2%)
    Default                     : Yes
    Alternate group             : 1
    
    Pass giải nén (Extract rar): LGRDP9
    Direct link:
    Mã:
    https://www.fshare.vn/file/QUR2MQLG7CWA
     
  7. noelhao

    noelhao Ultra HD4K Thành viên BQT

    Bài viết:
    6,615
    Đã được thích:
    1,483
    AssTraffic - PerfectGonzo - Henessy 2015 1080p WEB-DL

    [​IMG]

    Screenshot:


    [​IMG]

    Mediainfo:
    Mã:
    AssTraffic - PerfectGonzo - Henessy 2015 1080p WEB-DL.mp4
    Format                      : MPEG-4
    Format profile              : Base Media
    Codec ID                    : isom (isom/iso2/avc1/mp41)
    File size                   : 4.50 GiB
    Duration                    : 53 min 18 s
    Overall bit rate mode       : Variable
    Overall bit rate            : 12.1 Mb/s
    Movie name                  : RARBG.COM - AssTraffic.15.09.15.Henessy.XXX.1080p.MP4-KTR
    Writing application         : Lavf56.40.101
    Comment                     : RARBG.COM - AssTraffic.15.09.15.Henessy.XXX.1080p.MP4-KTR
    
    Video
    ID                          : 1
    Format                      : AVC
    Format/Info                 : Advanced Video Codec
    Format profile              : [email protected]
    Format settings, CABAC      : No
    Format settings, ReFrames   : 2 frames
    Codec ID                    : avc1
    Codec ID/Info               : Advanced Video Coding
    Duration                    : 53 min 18 s
    Bit rate mode               : Variable
    Bit rate                    : 11.9 Mb/s
    Maximum bit rate            : 14.0 Mb/s
    Width                       : 1 920 pixels
    Height                      : 1 080 pixels
    Display aspect ratio        : 16:9
    Frame rate mode             : Constant
    Frame rate                  : 29.970 (30000/1001) FPS
    Standard                    : NTSC
    Color space                 : YUV
    Chroma subsampling          : 4:2:0
    Bit depth                   : 8 bits
    Scan type                   : Progressive
    Bits/(Pixel*Frame)          : 0.192
    Stream size                 : 4.43 GiB (99%)
    Language                    : English
    Color range                 : Limited
    Color primaries             : BT.709
    Transfer characteristics    : BT.709
    Matrix coefficients         : BT.709
    
    Audio
    ID                          : 2
    Format                      : AAC
    Format/Info                 : Advanced Audio Codec
    Format profile              : LC
    Codec ID                    : 40
    Duration                    : 53 min 18 s
    Bit rate mode               : Variable
    Bit rate                    : 157 kb/s
    Maximum bit rate            : 258 kb/s
    Channel(s)                  : 2 channels
    Channel positions           : Front: L R
    Sampling rate               : 48.0 kHz
    Frame rate                  : 46.875 FPS (1024 spf)
    Compression mode            : Lossy
    Stream size                 : 60.0 MiB (1%)
    Language                    : English
    Default                     : Yes
    Alternate group             : 1
    
    Pass giải nén (Extract rar): DHZZTZ
    Direct link:
    Mã:
    https://www.fshare.vn/file/WLZU1A25BU2F
     
    JAV_collector and RuaConHamChoi like this.
  8. noelhao

    noelhao Ultra HD4K Thành viên BQT

    Bài viết:
    6,615
    Đã được thích:
    1,483
    DDFNetwork - Nympho Daydream Comes True 2012 1080p WEB-DL

    [​IMG]

    Screenshot:


    [​IMG]

    Mediainfo:
    Mã:
    DDFNetwork - Nympho Daydream Comes True 2012 1080p WEB-DL.mp4
    Format                      : MPEG-4
    Format profile              : Base Media / Version 2
    Codec ID                    : mp42 (mp42/avc1)
    File size                   : 2.26 GiB
    Duration                    : 26 min 33 s
    Overall bit rate            : 12.2 Mb/s
    Encoded date                : UTC 2012-06-06 17:04:28
    Tagged date                 : UTC 2012-06-06 18:08:26
    
    Video
    ID                          : 2
    Format                      : AVC
    Format/Info                 : Advanced Video Codec
    Format profile              : [email protected]
    Format settings, CABAC      : No
    Format settings, ReFrames   : 2 frames
    Format settings, GOP        : M=2, N=60
    Codec ID                    : avc1
    Codec ID/Info               : Advanced Video Coding
    Duration                    : 26 min 33 s
    Bit rate                    : 12.0 Mb/s
    Width                       : 1 920 pixels
    Height                      : 1 080 pixels
    Display aspect ratio        : 16:9
    Frame rate mode             : Constant
    Frame rate                  : 29.970 (30000/1001) FPS
    Color space                 : YUV
    Chroma subsampling          : 4:2:0
    Bit depth                   : 8 bits
    Scan type                   : Progressive
    Bits/(Pixel*Frame)          : 0.194
    Stream size                 : 2.23 GiB (99%)
    Language                    : English
    Encoded date                : UTC 2012-06-06 17:04:29
    Tagged date                 : UTC 2012-06-06 18:08:26
    Color range                 : Limited
    Color primaries             : BT.709
    Transfer characteristics    : BT.709
    Matrix coefficients         : BT.709
    
    Audio
    ID                          : 1
    Format                      : AAC
    Format/Info                 : Advanced Audio Codec
    Format profile              : LC
    Codec ID                    : 40
    Duration                    : 26 min 33 s
    Bit rate mode               : Constant
    Bit rate                    : 128 kb/s
    Channel(s)                  : 2 channels
    Channel positions           : Front: L R
    Sampling rate               : 44.1 kHz
    Frame rate                  : 43.066 FPS (1024 spf)
    Compression mode            : Lossy
    Stream size                 : 23.8 MiB (1%)
    Language                    : English
    Encoded date                : UTC 2012-06-06 17:04:29
    Tagged date                 : UTC 2012-06-06 18:08:26
    
    Pass giải nén (Extract rar): 1W3SS5
    Direct link:
    Mã:
    https://www.fshare.vn/file/YYN38JS2OYIG
     
    JAV_collector and RuaConHamChoi like this.
  9. noelhao

    noelhao Ultra HD4K Thành viên BQT

    Bài viết:
    6,615
    Đã được thích:
    1,483
    HardX - Stacked 2 2014 1080p WEB-DL

    [​IMG]

    Screenshot:


    [​IMG]

    Mediainfo:
    Mã:
    HardX - Stacked 2 2014 1080p WEB-DL\1 Siri.mp4
    Format                      : MPEG-4
    Format profile              : Base Media
    Codec ID                    : isom (isom/iso2/avc1/mp41)
    File size                   : 2.01 GiB
    Duration                    : 41 min 37 s
    Overall bit rate mode       : Variable
    Overall bit rate            : 6 902 kb/s
    Encoded date                : UTC 1970-01-01 00:00:00
    Tagged date                 : UTC 1970-01-01 00:00:00
    Writing application         : Lavf52.93.0
    
    Video
    ID                          : 1
    Format                      : AVC
    Format/Info                 : Advanced Video Codec
    Format profile              : [email protected]
    Format settings, CABAC      : Yes
    Format settings, ReFrames   : 4 frames
    Codec ID                    : avc1
    Codec ID/Info               : Advanced Video Coding
    Duration                    : 41 min 37 s
    Bit rate                    : 6 800 kb/s
    Width                       : 1 920 pixels
    Height                      : 1 080 pixels
    Display aspect ratio        : 16:9
    Frame rate mode             : Constant
    Frame rate                  : 29.970 (29970/1000) FPS
    Color space                 : YUV
    Chroma subsampling          : 4:2:0
    Bit depth                   : 8 bits
    Scan type                   : Progressive
    Bits/(Pixel*Frame)          : 0.109
    Stream size                 : 1.97 GiB (98%)
    Writing library             : x264 core 107
    Encoding settings           : cabac=1 / ref=3 / deblock=1:0:0 / analyse=0x3:0x113 / me=umh / subme=6 / psy=1 / psy_rd=1.00:0.00 / mixed_ref=1 / me_range=16 / chroma_me=1 / trellis=0 / 8x8dct=1 / cqm=0 / deadzone=21,11 / fast_pskip=1 / chroma_qp_offset=-2 / threads=1 / sliced_threads=0 / nr=0 / decimate=1 / interlaced=0 / constrained_intra=0 / bframes=2 / b_pyramid=2 / b_adapt=2 / b_bias=0 / direct=2 / weightb=1 / open_gop=0 / weightp=0 / keyint=30 / keyint_min=16 / scenecut=0 / intra_refresh=0 / rc_lookahead=30 / rc=abr / mbtree=1 / bitrate=6800 / ratetol=1.0 / qcomp=0.60 / qpmin=1 / qpmax=31 / qpstep=4 / ip_ratio=1.41 / aq=1:1.00
    Language                    : English
    Encoded date                : UTC 1970-01-01 00:00:00
    Tagged date                 : UTC 1970-01-01 00:00:00
    
    Audio
    ID                          : 2
    Format                      : AAC
    Format/Info                 : Advanced Audio Codec
    Format profile              : LC
    Codec ID                    : 40
    Duration                    : 41 min 37 s
    Bit rate mode               : Variable
    Bit rate                    : 113 kb/s
    Channel(s)                  : 2 channels
    Channel positions           : Front: L R
    Sampling rate               : 44.1 kHz
    Frame rate                  : 43.066 FPS (1024 spf)
    Compression mode            : Lossy
    Stream size                 : 33.8 MiB (2%)
    Language                    : English
    Encoded date                : UTC 1970-01-01 00:00:00
    Tagged date                 : UTC 1970-01-01 00:00:00
    
    
    Pass giải nén (Extract rar): GKZS48
    Direct link:
    Mã:
    https://www.fshare.vn/file/PYFYAABFX7TA
     
    JAV_collector thích bài này.
  10. noelhao

    noelhao Ultra HD4K Thành viên BQT

    Bài viết:
    6,615
    Đã được thích:
    1,483
    Marc Dorcel - 40 Years Old My New Vicious Life 2017 Bluray 1080p.x264

    [​IMG]

    Screenshot:


    [​IMG]

    Mediainfo:
    Mã:
    Marc Dorcel - 40 Years Old My New Vicious Life 2017 Bluray 1080p.x264.mkv
    Format                      : Matroska
    Format version              : Version 2
    File size                   : 4.79 GiB
    Duration                    : 1 h 57 min
    Overall bit rate            : 5 842 kb/s
    Encoded date                : UTC 2017-02-14 12:42:46
    Writing application         : mkvmerge v8.5.2 ('Crosses') 32bit
    Writing library             : libebml v1.3.3 + libmatroska v1.4.4
    
    Video
    ID                          : 1
    Format                      : AVC
    Format/Info                 : Advanced Video Codec
    Format profile              : [email protected]
    Format settings, CABAC      : Yes
    Format settings, ReFrames   : 4 frames
    Codec ID                    : V_MPEG4/ISO/AVC
    Duration                    : 1 h 57 min
    Bit rate                    : 5 456 kb/s
    Width                       : 1 920 pixels
    Height                      : 1 080 pixels
    Display aspect ratio        : 16:9
    Frame rate mode             : Constant
    Frame rate                  : 25.000 FPS
    Color space                 : YUV
    Chroma subsampling          : 4:2:0
    Bit depth                   : 8 bits
    Scan type                   : Progressive
    Bits/(Pixel*Frame)          : 0.105
    Stream size                 : 4.47 GiB (93%)
    Writing library             : x264 core 148 r2638 7599210
    Encoding settings           : cabac=1 / ref=4 / deblock=1:0:0 / analyse=0x3:0x133 / me=umh / subme=7 / psy=1 / psy_rd=1.00:0.00 / mixed_ref=1 / me_range=16 / chroma_me=1 / trellis=1 / 8x8dct=1 / cqm=0 / deadzone=21,11 / fast_pskip=0 / chroma_qp_offset=-2 / threads=12 / lookahead_threads=2 / sliced_threads=0 / nr=0 / decimate=1 / interlaced=0 / bluray_compat=0 / constrained_intra=0 / bframes=3 / b_pyramid=2 / b_adapt=2 / b_bias=0 / direct=3 / weightb=1 / open_gop=0 / weightp=2 / keyint=250 / keyint_min=25 / scenecut=40 / intra_refresh=0 / rc_lookahead=60 / rc=crf / mbtree=1 / crf=18.0 / qcomp=0.60 / qpmin=0 / qpmax=69 / qpstep=4 / ip_ratio=1.40 / aq=1:1.00
    Default                     : Yes
    Forced                      : No
    
    Audio #1
    ID                          : 2
    Format                      : AC-3
    Format/Info                 : Audio Coding 3
    Format settings, Endianness : Big
    Codec ID                    : A_AC3
    Duration                    : 1 h 57 min
    Bit rate mode               : Constant
    Bit rate                    : 192 kb/s
    Channel(s)                  : 2 channels
    Channel positions           : Front: L R
    Sampling rate               : 48.0 kHz
    Frame rate                  : 31.250 FPS (1536 spf)
    Bit depth                   : 16 bits
    Compression mode            : Lossy
    Stream size                 : 161 MiB (3%)
    Language                    : English
    Service kind                : Complete Main
    Default                     : Yes
    Forced                      : No
    
    Audio #2
    ID                          : 3
    Format                      : AC-3
    Format/Info                 : Audio Coding 3
    Format settings, Endianness : Big
    Codec ID                    : A_AC3
    Duration                    : 1 h 57 min
    Bit rate mode               : Constant
    Bit rate                    : 192 kb/s
    Channel(s)                  : 2 channels
    Channel positions           : Front: L R
    Sampling rate               : 48.0 kHz
    Frame rate                  : 31.250 FPS (1536 spf)
    Bit depth                   : 16 bits
    Compression mode            : Lossy
    Stream size                 : 161 MiB (3%)
    Language                    : French
    Service kind                : Complete Main
    Default                     : No
    Forced                      : No
    
    Pass giải nén (Extract rar): 9YDDRZ
    Direct link:
    Mã:
    https://www.fshare.vn/file/FGSARRBV9CO4
     
    JAV_collector and RuaConHamChoi like this.
  11. noelhao

    noelhao Ultra HD4K Thành viên BQT

    Bài viết:
    6,615
    Đã được thích:
    1,483
    RoccoSiffredi - Nekane, Ally Breelsen - Therapist Rocco Heals Competing Sluts 2016 1080p WEB-DL

    [​IMG]

    Screenshot:


    [​IMG]

    Mediainfo:
    Mã:
    RoccoSiffredi - Nekane, Ally Breelsen - Therapist Rocco Heals Competing Sluts 2016 1080p WEB-DL.mp4
    Format                      : MPEG-4
    Format profile              : Base Media
    Codec ID                    : isom (isom/iso2/avc1/mp41)
    File size                   : 3.71 GiB
    Duration                    : 1 h 15 min
    Overall bit rate            : 7 007 kb/s
    Writing application         : Lavf56.40.101
    
    Video
    ID                          : 1
    Format                      : AVC
    Format/Info                 : Advanced Video Codec
    Format profile              : [email protected]
    Format settings, CABAC      : Yes
    Format settings, ReFrames   : 4 frames
    Codec ID                    : avc1
    Codec ID/Info               : Advanced Video Coding
    Duration                    : 1 h 15 min
    Bit rate                    : 6 800 kb/s
    Width                       : 1 920 pixels
    Height                      : 1 080 pixels
    Display aspect ratio        : 16:9
    Frame rate mode             : Constant
    Frame rate                  : 29.970 (29970/1000) FPS
    Color space                 : YUV
    Chroma subsampling          : 4:2:0
    Bit depth                   : 8 bits
    Scan type                   : Progressive
    Bits/(Pixel*Frame)          : 0.109
    Stream size                 : 3.61 GiB (97%)
    Writing library             : x264 core 148
    Encoding settings           : cabac=1 / ref=3 / deblock=1:0:0 / analyse=0x3:0x113 / me=umh / subme=7 / psy=1 / psy_rd=1.00:0.00 / mixed_ref=1 / me_range=16 / chroma_me=1 / trellis=1 / 8x8dct=1 / cqm=0 / deadzone=21,11 / fast_pskip=1 / chroma_qp_offset=-2 / threads=34 / lookahead_threads=5 / sliced_threads=0 / nr=0 / decimate=1 / interlaced=0 / bluray_compat=0 / constrained_intra=0 / bframes=3 / b_pyramid=2 / b_adapt=1 / b_bias=0 / direct=1 / weightb=1 / open_gop=0 / weightp=2 / keyint=250 / keyint_min=25 / scenecut=40 / intra_refresh=0 / rc_lookahead=40 / rc=abr / mbtree=1 / bitrate=6800 / ratetol=1.0 / qcomp=0.60 / qpmin=0 / qpmax=69 / qpstep=4 / ip_ratio=1.40 / aq=1:1.00
    
    Audio
    ID                          : 2
    Format                      : AAC
    Format/Info                 : Advanced Audio Codec
    Format profile              : LC
    Codec ID                    : 40
    Duration                    : 1 h 15 min
    Duration_LastFrame          : -5 ms
    Bit rate mode               : Constant
    Bit rate                    : 192 kb/s
    Channel(s)                  : 2 channels
    Channel positions           : Front: L R
    Sampling rate               : 44.1 kHz
    Frame rate                  : 43.066 FPS (1024 spf)
    Compression mode            : Lossy
    Stream size                 : 104 MiB (3%)
    Default                     : Yes
    Alternate group             : 1
    
    Pass giải nén (Extract rar): XWJ5HO
    Direct link:
    Mã:
    https://www.fshare.vn/file/DH2JBN1YHAN5
     
    JAV_collector thích bài này.
  12. noelhao

    noelhao Ultra HD4K Thành viên BQT

    Bài viết:
    6,615
    Đã được thích:
    1,483
    SapphicErotica - Ally Breelsen, Nekane - Bathtub bliss 25.02.2017 1080p WEB-DL

    [​IMG]

    Screenshot:


    [​IMG]

    Mediainfo:
    Mã:
    SapphicErotica - Ally Breelsen, Nekane - Bathtub bliss 25.02.2017 1080p WEB-DL.mp4
    Format                      : MPEG-4
    Format profile              : Base Media
    Codec ID                    : isom (isom/iso2/avc1/mp41)
    File size                   : 3.81 GiB
    Duration                    : 45 min 6 s
    Overall bit rate mode       : Variable
    Overall bit rate            : 12.1 Mb/s
    Writing application         : Lavf57.56.100
    
    Video
    ID                          : 1
    Format                      : AVC
    Format/Info                 : Advanced Video Codec
    Format profile              : [email protected]
    Format settings, CABAC      : No
    Format settings, ReFrames   : 2 frames
    Format settings, GOP        : M=1, N=30
    Codec ID                    : avc1
    Codec ID/Info               : Advanced Video Coding
    Duration                    : 45 min 6 s
    Bit rate mode               : Variable
    Bit rate                    : 11.9 Mb/s
    Maximum bit rate            : 14.0 Mb/s
    Width                       : 1 920 pixels
    Height                      : 1 080 pixels
    Display aspect ratio        : 16:9
    Frame rate mode             : Constant
    Frame rate                  : 29.970 (30000/1001) FPS
    Standard                    : NTSC
    Color space                 : YUV
    Chroma subsampling          : 4:2:0
    Bit depth                   : 8 bits
    Scan type                   : Progressive
    Bits/(Pixel*Frame)          : 0.192
    Stream size                 : 3.75 GiB (99%)
    Color range                 : Limited
    Color primaries             : BT.709
    Transfer characteristics    : BT.709
    Matrix coefficients         : BT.709
    
    Audio
    ID                          : 2
    Format                      : AAC
    Format/Info                 : Advanced Audio Codec
    Format profile              : LC
    Codec ID                    : 40
    Duration                    : 45 min 6 s
    Duration_LastFrame          : -17 ms
    Bit rate mode               : Constant
    Bit rate                    : 157 kb/s
    Channel(s)                  : 2 channels
    Channel positions           : Front: L R
    Sampling rate               : 48.0 kHz
    Frame rate                  : 46.875 FPS (1024 spf)
    Compression mode            : Lossy
    Stream size                 : 50.8 MiB (1%)
    Default                     : Yes
    Alternate group             : 1
    Pass giải nén (Extract rar): FQ6AI9
    Direct link:
    Mã:
    https://www.fshare.vn/file/GJ5Q3VVIMDMT
     
  13. [GANON88]

    [GANON88] Dân Chơi Thứ Thiệt Verified

    Bài viết:
    497
    Đã được thích:
    29
    sắp đến phim của e rồi nhỉ ad ơi. phim hãng sweet sinner
     
    noelhao thích bài này.
  14. [GANON88]

    [GANON88] Dân Chơi Thứ Thiệt Verified

    Bài viết:
    497
    Đã được thích:
    29
    em cũng thich thể loại mb châu âu như này
     
    noelhao thích bài này.
  15. noelhao

    noelhao Ultra HD4K Thành viên BQT

    Bài viết:
    6,615
    Đã được thích:
    1,483
    Mình mới trở lại, sẽ tranh thủ cho bạn.
     
    RuaConHamChoi and [GANON88] like this.
  16. noelhao

    noelhao Ultra HD4K Thành viên BQT

    Bài viết:
    6,615
    Đã được thích:
    1,483
    Rất tiếc phim này mình không có. Lần sau chỉ nên viết cái tựa phim, không nên dẩn cả link web: dễ phạm Luật.
     
  17. Duy Nguyen 987

    Duy Nguyen 987 Dậy Thì Verified

    Bài viết:
    51
    Đã được thích:
    22
    Bạn ơi vậy lúc nào rỗi bạn tranh thủ upload nốt mấy phim của Henessy 1080p nhé.
    phim - LegalPorno Henessy (3 on 1) (2014) HD 1080p 2.398 GB
    Cảm ơn Bạn.
     
  18. RuaConHamChoi

    RuaConHamChoi Dân Chơi Verified

    Bài viết:
    440
    Đã được thích:
    26
    Bác Noelhao có sưu tầm phim của em Sunny Lane không?
    Em này thấy đóng ít phim quá. Nếu bác có phim của em ý thì up giùm nhé.
    Thanks bác Noelhao nhiều!
     
  19. noelhao

    noelhao Ultra HD4K Thành viên BQT

    Bài viết:
    6,615
    Đã được thích:
    1,483
    Phim này mình không có.
     
  20. noelhao

    noelhao Ultra HD4K Thành viên BQT

    Bài viết:
    6,615
    Đã được thích:
    1,483
    May mắn cho bạn, mình đang lên loạt phim của em này, sẽ post trong nay mai.
     
    RuaConHamChoi thích bài này.
Đang tải...
Similar Threads Diễn đàn Date
Fshare: Blood Sisters - Digital PlayGround FULL 5 Scences 7.5GB Phim Sex Âu Mỹ - Western Porn - Direct Fast Link 19/5/17
Collections Movies DVD, HD 720p 1080p[Fshare&torent] Phim Sex Âu Mỹ - Western Porn - Direct Fast Link 11/10/14
[Torrent]Stoya.In.Love.And.Other.Mishaps[HD/2.48GB ] Phim Sex Âu Mỹ - Western Porn - Direct Fast Link 16/9/13
[Torrent]Riley.Steele.Roommate[HD/4.37GB] Phim Sex Âu Mỹ - Western Porn - Direct Fast Link 16/9/13
[Torrent]Digital Playground - Disconnected 2013[HD/3.27GB] Phim Sex Âu Mỹ - Western Porn - Direct Fast Link 12/9/13

Chia sẻ trang này