[FSHARE 1 LINK] SƯU TẬP SEX ÂU DVDRIP-BDRIP... HIHIHIHI

Thảo luận trong 'Phim Sex Châu Âu FULL - Western Porn FULL Movie' bắt đầu bởi zuizuivth, 21/1/13.

  1. zuizuivth

    zuizuivth Đại Gia Lầu Xanh Verified

    Bài viết:
    1,070
    Đã được thích:
    14
    Anal Teen Dreams 2

    Front Image

    [​IMG]

    Back Image

    [​IMG]

    Test Screen

    [​IMG]

    General Information

    Mã:
    General
    
    \Atd2\_analteendreams2.avi
    Format                                   : MPEG-4
    Format profile                           : Base Media
    Codec ID                                 : isom
    [COLOR="Lime"]File size                                : 817 MiB
    Duration                                 : 1h 33mn[/COLOR]
    Overall bit rate mode                    : Variable
    Overall bit rate                         : 1 218 Kbps
    Encoded date                             : UTC 2013-01-10 10:47:25
    Tagged date                              : UTC 2013-01-10 10:47:25
    Writing application                      : My MP4Box GUI 0.5.6.0 <http://my-mp4box-gui.zymichost.com>
    
    Video
    ID                                       : 1
    Format                                   : AVC
    Format/Info                              : Advanced Video Codec
    Format profile                           : [email protected]
    Format settings, CABAC                   : Yes
    Format settings, ReFrames                : 5 frames
    Codec ID                                 : avc1
    Codec ID/Info                            : Advanced Video Coding
    Duration                                 : 1h 33mn
    [COLOR="Lime"]Bit rate                                 : 1 118 Kbps
    Maximum bit rate                         : 4 736 Kbps
    Width                                    : 704 pixels
    Height                                   : 386 pixels[/COLOR]
    Display aspect ratio                     : 1.85:1
    Frame rate mode                          : Constant
    Frame rate                               : 29.970 fps
    Color space                              : YUV
    Chroma subsampling                       : 4:2:0
    Bit depth                                : 8 bits
    Scan type                                : Progressive
    Bits/(Pixel*Frame)                       : 0.137
    Stream size                              : 750 MiB (92%)
    Writing library                          : x264 core 129 r2230 1cffe9f
    Encoding settings                        : cabac=1 / ref=5 / deblock=1:0:0 / analyse=0x3:0x133 / me=umh / subme=8 / psy=1 / psy_rd=1.00:0.00 / mixed_ref=1 / me_range=16 / chroma_me=1 / trellis=1 / 8x8dct=1 / cqm=0 / deadzone=21,11 / fast_pskip=0 / chroma_qp_offset=-2 / threads=12 / lookahead_threads=2 / sliced_threads=0 / nr=0 / decimate=1 / interlaced=0 / bluray_compat=0 / constrained_intra=0 / bframes=3 / b_pyramid=2 / b_adapt=2 / b_bias=0 / direct=3 / weightb=1 / open_gop=0 / weightp=2 / keyint=300 / keyint_min=29 / scenecut=40 / intra_refresh=0 / rc_lookahead=50 / rc=crf / mbtree=1 / crf=20.0 / qcomp=0.60 / qpmin=0 / qpmax=69 / qpstep=4 / ip_ratio=1.40 / aq=1:1.00
    Encoded date                             : UTC 2013-01-11 09:43:11
    Tagged date                              : UTC 2013-01-10 10:47:57
    
    Audio
    ID                                       : 2
    Format                                   : AAC
    Format/Info                              : Advanced Audio Codec
    Format profile                           : LC
    Codec ID                                 : 40
    Duration                                 : 1h 33mn
    [COLOR="Lime"]Bit rate mode                            : Variable
    Bit rate                                 : 96.0 Kbps
    Maximum bit rate                         : 110 Kbps
    Channel(s)                               : 2 channels
    Channel positions                        : Front: L R
    Sampling rate                            : 48.0 KHz
    Compression mode                         : Lossy[/COLOR]
    Delay relative to video                  : 67ms
    Stream size                              : 64.2 MiB (8%)
    Encoded date                             : UTC 2013-01-10 10:47:55
    Tagged date                              : UTC 2013-01-10 10:47:57
    
    
    Plots

    Screenshot

    Click Vào Screenshot Xem Lớn Hơn
    Please Click On Image To Enlarge


    [​IMG]

    Download

    [​IMG]

    Fshare 1 link

    Mã:
    http://www.fshare.vn/folder/T38RSYMWJT/

    Encoder
    Mã:
    [CENTER] Jiggly[/CENTER]

    Uploader
    Mã:
    [CENTER]zuizuivth[/CENTER]
     
  2. tranhoang852400

    tranhoang852400 Dậy Thì Verified

    Bài viết:
    64
    Đã được thích:
    0
    phim hay , diễn viên đẹp , chất lượng hình ảnh tuyệt vời, mong chủ thớt tiếp tục phát huy!!!!
     
  3. zuizuivth

    zuizuivth Đại Gia Lầu Xanh Verified

    Bài viết:
    1,070
    Đã được thích:
    14
    Anal Teen Dreams

    Front Image

    [​IMG]

    Back Image

    [​IMG]

    Test Screen

    [​IMG]

    General Information

    Mã:
    General
    
    Format                                   : AVI
    Format/Info                              : Audio Video Interleave
    [COLOR="Lime"]File size                                : 697 MiB
    Duration                                 : 1h 25mn[/COLOR]
    Overall bit rate mode                    : Variable
    Overall bit rate                         : 1 139 Kbps
    Writing application                      : VirtualDubMod 1.5.10.2 (build 2540/release)
    Writing library                          : VirtualDubMod build 2540/release
    
    Video
    ID                                       : 0
    Format                                   : MPEG-4 Visual
    Format profile                           : Advanced [email protected]
    Format settings, BVOP                    : 3
    Format settings, QPel                    : No
    Format settings, GMC                     : No warppoints
    Format settings, Matrix                  : Default (MPEG)
    Codec ID                                 : XVID
    Codec ID/Hint                            : XviD
    Duration                                 : 1h 25mn
    [COLOR="Lime"]Bit rate                                 : 1 000 Kbps
    Width                                    : 576 pixels
    Height                                   : 320 pixels[/COLOR]
    Display aspect ratio                     : 16:9
    Frame rate                               : 29.970 fps
    Color space                              : YUV
    Chroma subsampling                       : 4:2:0
    Bit depth                                : 8 bits
    Scan type                                : Progressive
    Compression mode                         : Lossy
    Bits/(Pixel*Frame)                       : 0.181
    Stream size                              : 611 MiB (88%)
    Writing library                          : XviD 1.2.1 (UTC 2008-12-04)
    
    Audio
    ID                                       : 1
    Format                                   : MPEG Audio
    Format version                           : Version 1
    Format profile                           : Layer 3
    Mode                                     : Joint stereo
    Mode extension                           : MS Stereo
    Codec ID                                 : 55
    Codec ID/Hint                            : MP3
    Duration                                 : 1h 25mn
    [COLOR="Lime"]Bit rate mode                            : Variable
    Bit rate                                 : 128 Kbps
    Channel(s)                               : 2 channels
    Sampling rate                            : 48.0 KHz
    Compression mode                         : Lossy[/COLOR]
    Stream size                              : 76.9 MiB (11%)
    Alignment                                : Aligned on interleaves
    Interleave, duration                     : 24 ms (0.72 video frame)
    Interleave, preload duration             : 155 ms
    Writing library                          : LAME3.90.
    Encoding settings                        : -m j -V 4 -q 2 -lowpass 17.6 --abr 128
    
    
    Plots

    Screenshot

    Click Vào Screenshot Xem Lớn Hơn
    Please Click On Image To Enlarge


    [​IMG]

    Download

    [​IMG]

    Fshare 1 link

    Mã:
    http://www.fshare.vn/folder/THDK9JHVDT/

    Encoder
    Mã:
    [CENTER] Jiggly[/CENTER]

    Uploader
    Mã:
    [CENTER]zuizuivth[/CENTER]
     
  4. zuizuivth

    zuizuivth Đại Gia Lầu Xanh Verified

    Bài viết:
    1,070
    Đã được thích:
    14
    The Innocence Of Youth 2

    Front Image

    [​IMG]

    Back Image

    [​IMG]

    Test Screen

    [​IMG]

    General Information CD1(Full 2CD)

    Mã:
    General
    
    cd1.avi
    Format                                   : AVI
    Format/Info                              : Audio Video Interleave
    [COLOR="Lime"]File size                                : 697 MiB
    Duration                                 : 1h 1mn[/COLOR]
    Overall bit rate mode                    : Variable
    Overall bit rate                         : 1 572 Kbps
    Writing application                      : VirtualDubMod 1.5.10.2 (build 2540/release)
    Writing library                          : VirtualDubMod build 2540/release
    
    Video
    ID                                       : 0
    Format                                   : MPEG-4 Visual
    Format profile                           : Advanced [email protected]
    Format settings, BVOP                    : 3
    Format settings, QPel                    : No
    Format settings, GMC                     : No warppoints
    Format settings, Matrix                  : Default (MPEG)
    Codec ID                                 : XVID
    Codec ID/Hint                            : XviD
    Duration                                 : 1h 1mn
    [COLOR="Lime"]Bit rate                                 : 1 436 Kbps
    Width                                    : 640 pixels
    Height                                   : 352 pixels[/COLOR]
    Display aspect ratio                     : 16:9
    Frame rate                               : 23.976 fps
    Color space                              : YUV
    Chroma subsampling                       : 4:2:0
    Bit depth                                : 8 bits
    Scan type                                : Progressive
    Compression mode                         : Lossy
    Bits/(Pixel*Frame)                       : 0.266
    Stream size                              : 636 MiB (91%)
    Writing library                          : XviD 1.2.1 (UTC 2008-12-04)
    
    Audio
    ID                                       : 1
    Format                                   : MPEG Audio
    Format version                           : Version 1
    Format profile                           : Layer 3
    Mode                                     : Joint stereo
    Codec ID                                 : 55
    Codec ID/Hint                            : MP3
    Duration                                 : 1h 1mn
    [COLOR="Lime"]Bit rate mode                            : Variable
    Bit rate                                 : 128 Kbps
    Channel(s)                               : 2 channels
    Sampling rate                            : 48.0 KHz
    Compression mode                         : Lossy[/COLOR]
    Stream size                              : 54.5 MiB (8%)
    Alignment                                : Aligned on interleaves
    Interleave, duration                     : 24 ms (0.58 video frame)
    Interleave, preload duration             : 540 ms
    Writing library                          : LAME3.90.
    Encoding settings                        : -m j -V 4 -q 2 -lowpass 17.6 --abr 128
    
    
    Plots

    Screenshot CD1(Full 2 CD)

    Click Vào Screenshot Xem Lớn Hơn
    Please Click On Image To Enlarge


    [​IMG]

    Download

    [​IMG]

    Fshare 1 link

    Mã:
    http://www.fshare.vn/folder/TY4NF7V3NT/

    Encoder
    Mã:
    [CENTER] Jiggly[/CENTER]

    Uploader
    Mã:
    [CENTER]zuizuivth[/CENTER]
     
  5. zuizuivth

    zuizuivth Đại Gia Lầu Xanh Verified

    Bài viết:
    1,070
    Đã được thích:
    14
    The Innocence Of Youth

    Front Image

    [​IMG]

    Back Image

    [​IMG]

    Test Screen

    [​IMG]

    General Information

    Mã:
    General
    
    Format                                   : AVI
    Format/Info                              : Audio Video Interleave
    [COLOR="Lime"]File size                                : 700 MiB
    Duration                                 : 1h 35mn[/COLOR]
    Overall bit rate mode                    : Variable
    Overall bit rate                         : 1 027 Kbps
    Writing application                      : VirtualDubMod 1.5.10.2 (build 2540/release)
    Writing library                          : VirtualDubMod build 2540/release
    
    Video
    ID                                       : 0
    Format                                   : MPEG-4 Visual
    Format profile                           : Advanced [email protected]
    Format settings, BVOP                    : 3
    Format settings, QPel                    : No
    Format settings, GMC                     : No warppoints
    Format settings, Matrix                  : Default (MPEG)
    Codec ID                                 : XVID
    Codec ID/Hint                            : XviD
    Duration                                 : 1h 35mn
    [COLOR="Lime"]Bit rate                                 : 888 Kbps
    Width                                    : 576 pixels
    Height                                   : 320 pixels[/COLOR]
    Display aspect ratio                     : 16:9
    Frame rate                               : 23.976 fps
    Color space                              : YUV
    Chroma subsampling                       : 4:2:0
    Bit depth                                : 8 bits
    Scan type                                : Progressive
    Compression mode                         : Lossy
    Bits/(Pixel*Frame)                       : 0.201
    Stream size                              : 605 MiB (86%)
    Writing library                          : XviD 1.2.1 (UTC 2008-12-04)
    
    Audio
    ID                                       : 1
    Format                                   : MPEG Audio
    Format version                           : Version 1
    Format profile                           : Layer 3
    Mode                                     : Joint stereo
    Mode extension                           : MS Stereo
    Codec ID                                 : 55
    Codec ID/Hint                            : MP3
    Duration                                 : 1h 35mn
    [COLOR="Lime"]Bit rate mode                            : Variable
    Bit rate                                 : 128 Kbps
    Channel(s)                               : 2 channels
    Sampling rate                            : 48.0 KHz
    Compression mode                         : Lossy[/COLOR]
    Stream size                              : 86.7 MiB (12%)
    Alignment                                : Aligned on interleaves
    Interleave, duration                     : 24 ms (0.58 video frame)
    Interleave, preload duration             : 528 ms
    Writing library                          : LAME3.90.
    Encoding settings                        : -m j -V 4 -q 2 -lowpass 17.6 --abr 128
    
    
    Plots

    Screenshot

    Click Vào Screenshot Xem Lớn Hơn
    Please Click On Image To Enlarge


    [​IMG]

    Download

    [​IMG]

    Fshare 1 link

    Mã:
    http://www.fshare.vn/folder/TJ8WRRHTST/

    Encoder
    Mã:
    [CENTER] Jiggly[/CENTER]

    Uploader
    Mã:
    [CENTER]zuizuivth[/CENTER]
     
  6. zuizuivth

    zuizuivth Đại Gia Lầu Xanh Verified

    Bài viết:
    1,070
    Đã được thích:
    14
    Teens In Tight Jeans 3

    Front Image

    [​IMG]

    Back Image

    [​IMG]

    Test Screen

    [​IMG]

    General Information

    Mã:
    General
    
    Format                                   : MPEG-4
    Format profile                           : Base Media
    Codec ID                                 : isom
    [COLOR="Lime"]File size                                : 1.10 GiB
    Duration                                 : 2h 0mn[/COLOR]
    Overall bit rate mode                    : Variable
    Overall bit rate                         : 1 301 Kbps
    Encoded date                             : UTC 2013-01-25 03:09:49
    Tagged date                              : UTC 2013-01-25 03:09:49
    
    Video
    ID                                       : 1
    Format                                   : AVC
    Format/Info                              : Advanced Video Codec
    Format profile                           : [email protected]
    Format settings, CABAC                   : Yes
    Format settings, ReFrames                : 5 frames
    Codec ID                                 : avc1
    Codec ID/Info                            : Advanced Video Coding
    Duration                                 : 2h 0mn
    [COLOR="Lime"]Bit rate                                 : 1 204 Kbps
    Maximum bit rate                         : 4 393 Kbps
    Width                                    : 704 pixels
    Height                                   : 396 pixels[/COLOR]
    Display aspect ratio                     : 16:9
    Frame rate mode                          : Constant
    Frame rate                               : 23.976 fps
    Color space                              : YUV
    Chroma subsampling                       : 4:2:0
    Bit depth                                : 8 bits
    Scan type                                : Progressive
    Bits/(Pixel*Frame)                       : 0.180
    Stream size                              : 1.02 GiB (93%)
    Title                                    : 264#trackID=1:[email protected]
    Writing library                          : x264 core 129 r2245 bc13772
    Encoding settings                        : cabac=1 / ref=5 / deblock=1:0:0 / analyse=0x3:0x113 / me=umh / subme=8 / psy=1 / psy_rd=1.00:0.00 / mixed_ref=1 / me_range=16 / chroma_me=1 / trellis=1 / 8x8dct=1 / cqm=0 / deadzone=21,11 / fast_pskip=0 / chroma_qp_offset=-2 / threads=12 / lookahead_threads=2 / sliced_threads=0 / nr=0 / decimate=1 / interlaced=0 / bluray_compat=0 / constrained_intra=0 / bframes=3 / b_pyramid=2 / b_adapt=2 / b_bias=0 / direct=3 / weightb=1 / open_gop=0 / weightp=2 / keyint=240 / keyint_min=23 / scenecut=40 / intra_refresh=0 / rc_lookahead=50 / rc=crf / mbtree=1 / crf=19.0 / qcomp=0.60 / qpmin=0 / qpmax=69 / qpstep=4 / ip_ratio=1.40 / aq=1:1.00
    Encoded date                             : UTC 2013-01-25 03:09:49
    Tagged date                              : UTC 2013-01-25 03:10:14
    
    Audio
    ID                                       : 2
    Format                                   : AAC
    Format/Info                              : Advanced Audio Codec
    Format profile                           : LC
    Codec ID                                 : 40
    Duration                                 : 2h 0mn
    [COLOR="Lime"]Bit rate mode                            : Variable
    Bit rate                                 : 93.2 Kbps
    Maximum bit rate                         : 99.0 Kbps
    Channel(s)                               : 1 channel
    Channel positions                        : Front: C
    Sampling rate                            : 48.0 KHz
    Compression mode                         : Lossy[/COLOR]
    Stream size                              : 80.6 MiB (7%)
    Encoded date                             : UTC 2013-01-25 02:08:25
    Tagged date                              : UTC 2013-01-25 03:10:14
    
    
    Plots

    Screenshot

    Click Vào Screenshot Xem Lớn Hơn
    Please Click On Image To Enlarge


    [​IMG]

    Download

    [​IMG]

    Fshare 1 link

    Mã:
    http://www.fshare.vn/folder/TRQ6B0JXQT/

    Encoder
    Mã:
    [CENTER] Pr0nStarS[/CENTER]

    Uploader
    Mã:
    [CENTER]zuizuivth[/CENTER]
     
  7. zuizuivth

    zuizuivth Đại Gia Lầu Xanh Verified

    Bài viết:
    1,070
    Đã được thích:
    14
    Anal Car Wash Angels

    Front Image

    [​IMG]

    Back Image

    [​IMG]

    Test Screen

    [​IMG]

    General Information Scene 1(Full 5 Scene)

    Mã:
    General
    
    Format                                   : MPEG-4
    Format profile                           : Base Media
    Codec ID                                 : isom
    [CENTER]File size                                : 210 MiB
    Duration                                 : 20mn 4s[/CENTER]
    Overall bit rate mode                    : Variable
    Overall bit rate                         : 1 464 Kbps
    Writing application                      : Lavf52.102.0
    
    Video
    ID                                       : 1
    Format                                   : AVC
    Format/Info                              : Advanced Video Codec
    Format profile                           : [email protected]
    Format settings, CABAC                   : Yes
    Format settings, ReFrames                : 5 frames
    Codec ID                                 : avc1
    Codec ID/Info                            : Advanced Video Coding
    Duration                                 : 20mn 4s
    [COLOR="Lime"]Bit rate                                 : 1 300 Kbps
    Width                                    : 720 pixels
    Height                                   : 400 pixels[/COLOR]
    Display aspect ratio                     : 16:9
    Frame rate mode                          : Constant
    Frame rate                               : 23.976 fps
    Color space                              : YUV
    Chroma subsampling                       : 4:2:0
    Bit depth                                : 8 bits
    Scan type                                : Progressive
    Bits/(Pixel*Frame)                       : 0.188
    Stream size                              : 186 MiB (88%)
    Writing library                          : x264 core 114 r1913 5fd3dce
    Encoding settings                        : cabac=1 / ref=5 / deblock=1:0:0 / analyse=0x3:0x113 / me=umh / subme=8 / psy=1 / psy_rd=1.00:0.00 / mixed_ref=1 / me_range=16 / chroma_me=1 / trellis=1 / 8x8dct=1 / cqm=0 / deadzone=21,11 / fast_pskip=1 / chroma_qp_offset=-2 / threads=6 / sliced_threads=0 / nr=0 / decimate=1 / interlaced=0 / constrained_intra=0 / bframes=3 / b_pyramid=2 / b_adapt=2 / b_bias=0 / direct=3 / weightb=1 / open_gop=0 / weightp=2 / keyint=60 / keyint_min=25 / scenecut=40 / intra_refresh=0 / rc_lookahead=50 / rc=abr / mbtree=1 / bitrate=1300 / ratetol=1.0 / qcomp=0.60 / qpmin=10 / qpmax=51 / qpstep=4 / ip_ratio=1.41 / aq=1:1.00
    Tagged date                              : UTC 2012-10-18 01:11:07
    
    Audio
    ID                                       : 2
    Format                                   : AAC
    Format/Info                              : Advanced Audio Codec
    Format profile                           : LC
    Codec ID                                 : 40
    Duration                                 : 20mn 4s
    [COLOR="Lime"]Bit rate mode                            : Variable
    Bit rate                                 : 96.0 Kbps
    Channel(s)                               : 2 channels
    Channel positions                        : Front: L R
    Sampling rate                            : 48.0 KHz
    Compression mode                         : Lossy[/COLOR]
    Stream size                              : 13.8 MiB (7%)
    Tagged date                              : UTC 2012-10-18 01:11:07
    
    
    Plots

    Screenshot Scene 1(Full 5 Scene)

    Click Vào Screenshot Xem Lớn Hơn
    Please Click On Image To Enlarge


    [​IMG]

    Download

    [​IMG]

    Fshare 1 link

    Mã:
    http://www.fshare.vn/folder/TVDFCAXTVT/

    Encoder
    Mã:
    [CENTER]  DivXfacTory[/CENTER]

    Uploader
    Mã:
    [CENTER]zuizuivth[/CENTER]
     
  8. zuizuivth

    zuizuivth Đại Gia Lầu Xanh Verified

    Bài viết:
    1,070
    Đã được thích:
    14
    Anal Babes Gone Wild 2

    Front Image

    [​IMG]

    Back Image

    [​IMG]

    Test Screen

    [​IMG]

    General Information

    Mã:
    General
    
    Babes\_analbabes.mp4
    Format                                   : MPEG-4
    Format profile                           : Base Media
    Codec ID                                 : isom
    [COLOR="Lime"]File size                                : 997 MiB
    Duration                                 : 1h 26mn[/COLOR]
    Overall bit rate mode                    : Variable
    Overall bit rate                         : 1 609 Kbps
    Encoded date                             : UTC 2013-01-25 12:09:59
    Tagged date                              : UTC 2013-01-25 12:09:59
    
    Video
    ID                                       : 1
    Format                                   : AVC
    Format/Info                              : Advanced Video Codec
    Format profile                           : [email protected]
    Format settings, CABAC                   : Yes
    Format settings, ReFrames                : 5 frames
    Codec ID                                 : avc1
    Codec ID/Info                            : Advanced Video Coding
    Duration                                 : 1h 26mn
    [COLOR="Lime"]Bit rate                                 : 1 513 Kbps
    Maximum bit rate                         : 3 325 Kbps
    Width                                    : 720 pixels
    Height                                   : 404 pixels[/COLOR]
    Display aspect ratio                     : 16:9
    Frame rate mode                          : Constant
    Frame rate                               : 29.970 fps
    Color space                              : YUV
    Chroma subsampling                       : 4:2:0
    Bit depth                                : 8 bits
    Scan type                                : Progressive
    Bits/(Pixel*Frame)                       : 0.174
    Stream size                              : 937 MiB (94%)
    Title                                    : Ä
    Writing library                          : x264 core 129 r2230 1cffe9f
    Encoding settings                        : cabac=1 / ref=5 / deblock=1:0:0 / analyse=0x3:0x113 / me=umh / subme=8 / psy=1 / psy_rd=1.00:0.00 / mixed_ref=1 / me_range=16 / chroma_me=1 / trellis=1 / 8x8dct=1 / cqm=0 / deadzone=21,11 / fast_pskip=0 / chroma_qp_offset=-2 / threads=12 / lookahead_threads=2 / sliced_threads=0 / nr=0 / decimate=1 / interlaced=0 / bluray_compat=0 / constrained_intra=0 / bframes=3 / b_pyramid=2 / b_adapt=2 / b_bias=0 / direct=3 / weightb=1 / open_gop=0 / weightp=2 / keyint=300 / keyint_min=29 / scenecut=40 / intra_refresh=0 / rc_lookahead=50 / rc=crf / mbtree=1 / crf=20.0 / qcomp=0.60 / qpmin=0 / qpmax=69 / qpstep=4 / ip_ratio=1.40 / aq=1:1.00
    Encoded date                             : UTC 2013-01-25 12:09:59
    Tagged date                              : UTC 2013-01-25 12:14:36
    
    Audio
    ID                                       : 2
    Format                                   : AAC
    Format/Info                              : Advanced Audio Codec
    Format profile                           : LC
    Codec ID                                 : 40
    Duration                                 : 1h 26mn
    [COLOR="Lime"]Bit rate mode                            : Variable
    Bit rate                                 : 91.5 Kbps
    Maximum bit rate                         : 97.6 Kbps
    Channel(s)                               : 1 channel
    Channel positions                        : Front: C
    Sampling rate                            : 48.0 KHz
    Compression mode                         : Lossy[/COLOR]
    Stream size                              : 56.7 MiB (6%)
    Encoded date                             : UTC 2013-01-25 12:14:35
    Tagged date                              : UTC 2013-01-25 12:14:36
    
    
    Plots

    Screenshot

    Click Vào Screenshot Xem Lớn Hơn
    Please Click On Image To Enlarge


    [​IMG]

    Download

    [​IMG]

    Fshare 1 link

    Mã:
    http://www.fshare.vn/folder/TCBZ44R9ST/

    Encoder
    Mã:
    [CENTER] SLiEZE[/CENTER]

    Uploader
    Mã:
    [CENTER]zuizuivth[/CENTER]
     
  9. zuizuivth

    zuizuivth Đại Gia Lầu Xanh Verified

    Bài viết:
    1,070
    Đã được thích:
    14
    Hairy Teens 6

    Front Image

    [​IMG]

    Back Image

    [​IMG]

    Test Screen

    [​IMG]

    General Information

    Mã:
    General
    
    Format                                   : MPEG-4
    Format profile                           : Base Media
    Codec ID                                 : isom
    [COLOR="Lime"]File size                                : 1 011 MiB
    Duration                                 : 1h 48mn[/COLOR]
    Overall bit rate mode                    : Variable
    Overall bit rate                         : 1 300 Kbps
    Encoded date                             : UTC 2013-01-24 23:45:50
    Tagged date                              : UTC 2013-01-24 23:45:50
    
    Video
    ID                                       : 1
    Format                                   : AVC
    Format/Info                              : Advanced Video Codec
    Format profile                           : [email protected]
    Format settings, CABAC                   : Yes
    Format settings, ReFrames                : 5 frames
    Codec ID                                 : avc1
    Codec ID/Info                            : Advanced Video Coding
    Duration                                 : 1h 48mn
    [COLOR="Lime"]Bit rate                                 : 1 066 Kbps
    Maximum bit rate                         : 2 897 Kbps
    Width                                    : 720 pixels
    Height                                   : 404 pixels[/COLOR]
    Display aspect ratio                     : 16:9
    Frame rate mode                          : Constant
    Frame rate                               : 25.000 fps
    Color space                              : YUV
    Chroma subsampling                       : 4:2:0
    Bit depth                                : 8 bits
    Scan type                                : Progressive
    Bits/(Pixel*Frame)                       : 0.147
    Stream size                              : 829 MiB (82%)
    Writing library                          : x264 core 129 r2245 bc13772
    Encoding settings                        : cabac=1 / ref=5 / deblock=1:0:0 / analyse=0x3:0x113 / me=umh / subme=8 / psy=1 / psy_rd=1.00:0.00 / mixed_ref=1 / me_range=16 / chroma_me=1 / trellis=1 / 8x8dct=1 / cqm=0 / deadzone=21,11 / fast_pskip=0 / chroma_qp_offset=-2 / threads=6 / lookahead_threads=1 / sliced_threads=0 / nr=0 / decimate=1 / interlaced=0 / bluray_compat=0 / constrained_intra=0 / bframes=3 / b_pyramid=2 / b_adapt=2 / b_bias=0 / direct=3 / weightb=1 / open_gop=0 / weightp=2 / keyint=250 / keyint_min=25 / scenecut=40 / intra_refresh=0 / rc_lookahead=50 / rc=crf / mbtree=1 / crf=20.0 / qcomp=0.60 / qpmin=0 / qpmax=69 / qpstep=4 / ip_ratio=1.40 / aq=1:1.00
    Encoded date                             : UTC 2013-01-24 23:45:50
    Tagged date                              : UTC 2013-01-24 23:46:11
    
    Audio
    ID                                       : 2
    Format                                   : AAC
    Format/Info                              : Advanced Audio Codec
    Format profile                           : LC
    Codec ID                                 : 40
    Duration                                 : 1h 48mn
    [COLOR="Lime"]Bit rate mode                            : Variable
    Bit rate                                 : 230 Kbps
    Maximum bit rate                         : 252 Kbps
    Channel(s)                               : 2 channels
    Channel positions                        : Front: L R
    Sampling rate                            : 48.0 KHz
    Compression mode                         : Lossy[/COLOR]
    Stream size                              : 179 MiB (18%)
    Encoded date                             : UTC 2013-01-24 23:46:05
    Tagged date                              : UTC 2013-01-24 23:46:11
    
    
    Screenshot

    Click Vào Screenshot Xem Lớn Hơn
    Please Click On Image To Enlarge


    [​IMG]

    Download

    [​IMG]

    Fshare 1 link

    Mã:
    http://www.fshare.vn/folder/TV6JNJ0KVT/

    Encoder
    Mã:
    [CENTER] UPPERCUT[/CENTER]

    Uploader
    Mã:
    [CENTER]zuizuivth[/CENTER]
     
  10. zuizuivth

    zuizuivth Đại Gia Lầu Xanh Verified

    Bài viết:
    1,070
    Đã được thích:
    14
    Dani Daniels Dare

    Front Image


    [​IMG]

    Back Image

    [​IMG]



    Test Screen

    [​IMG]

    General Information CD1 (Full 2 CD)
    Mã:
    General
    
    Dare\_cd1.avi
    Format                                   : AVI
    Format/Info                              : Audio Video Interleave
    [CENTER]File size                                : 698 MiB
    Duration                                 : 1h 32mn[/CENTER]
    Overall bit rate mode                    : Variable
    Overall bit rate                         : 1 049 Kbps
    Writing application                      : VirtualDubMod 1.5.10.2 (build 2540/release)
    Writing library                          : VirtualDubMod build 2540/release
    
    Video
    ID                                       : 0
    Format                                   : MPEG-4 Visual
    Format profile                           : [email protected]
    Format settings, BVOP                    : 3
    Format settings, QPel                    : No
    Format settings, GMC                     : No warppoints
    Format settings, Matrix                  : Default (MPEG)
    Codec ID                                 : XVID
    Codec ID/Hint                            : XviD
    Duration                                 : 1h 32mn
    [COLOR="Lime"]Bit rate                                 : 909 Kbps
    Width                                    : 576 pixels
    Height                                   : 320 pixels[/COLOR]
    Display aspect ratio                     : 16:9
    Frame rate                               : 23.976 fps
    Color space                              : YUV
    Chroma subsampling                       : 4:2:0
    Bit depth                                : 8 bits
    Scan type                                : Progressive
    Compression mode                         : Lossy
    Bits/(Pixel*Frame)                       : 0.206
    Stream size                              : 604 MiB (87%)
    Writing library                          : XviD 1.0.3 (UTC 2004-12-20)
    
    Audio
    ID                                       : 1
    Format                                   : MPEG Audio
    Format version                           : Version 1
    Format profile                           : Layer 3
    Mode                                     : Joint stereo
    Mode extension                           : MS Stereo
    Codec ID                                 : 55
    Codec ID/Hint                            : MP3
    Duration                                 : 1h 32mn
    [COLOR="Lime"]Bit rate mode                            : Variable
    Bit rate                                 : 128 Kbps
    Channel(s)                               : 2 channels
    Sampling rate                            : 48.0 KHz
    Compression mode                         : Lossy[/COLOR]
    Stream size                              : 85.0 MiB (12%)
    Alignment                                : Aligned on interleaves
    Interleave, duration                     : 24 ms (0.58 video frame)
    Interleave, preload duration             : 144 ms
    Writing library                          : LAME3.90.
    Encoding settings                        : -m j -V 4 -q 2 -lowpass 17.6 --abr 128
    
    
    Plots
    Screenshot CD1 (Full 2 CD)

    Click Vào Screenshot Xem Lớn Hơn
    Please Click On Image To Enlarge


    [​IMG]

    Download

    [​IMG]

    Fshare 1 link

    Mã:
    http://www.fshare.vn/folder/TMFKC54P9T/

    Encoder
    Mã:
    [CENTER] Jiggly[/CENTER]

    Uploader
    Mã:
    [CENTER]zuizuivth[/CENTER]
     
  11. zuizuivth

    zuizuivth Đại Gia Lầu Xanh Verified

    Bài viết:
    1,070
    Đã được thích:
    14
    Snow Teens 5

    Front Image

    [​IMG]

    Back Image

    [​IMG]

    Test Screen

    [​IMG]

    General Information

    Mã:
    General
    
    Format                                   : MPEG-4
    Format profile                           : Base Media
    Codec ID                                 : isom
    [COLOR="Lime"]File size                                : 1.30 GiB
    Duration                                 : 1h 52mn[/COLOR]
    Overall bit rate mode                    : Variable
    Overall bit rate                         : 1 644 Kbps
    Encoded date                             : UTC 2012-11-22 19:15:32
    Tagged date                              : UTC 2012-11-22 19:15:32
    
    Video
    ID                                       : 1
    Format                                   : AVC
    Format/Info                              : Advanced Video Codec
    Format profile                           : [email protected]
    Format settings, CABAC                   : Yes
    Format settings, ReFrames                : 5 frames
    Codec ID                                 : avc1
    Codec ID/Info                            : Advanced Video Coding
    Duration                                 : 1h 52mn
    [COLOR="Lime"]Bit rate                                 : 1 411 Kbps
    Maximum bit rate                         : 5 788 Kbps
    Width                                    : 720 pixels
    Height                                   : 404 pixels[/COLOR]
    Display aspect ratio                     : 16:9
    Frame rate mode                          : Constant
    Frame rate                               : 25.000 fps
    Color space                              : YUV
    Chroma subsampling                       : 4:2:0
    Bit depth                                : 8 bits
    Scan type                                : Progressive
    Bits/(Pixel*Frame)                       : 0.194
    Stream size                              : 1.11 GiB (86%)
    Writing library                          : x264 core 129 r2230 1cffe9f
    Encoding settings                        : cabac=1 / ref=5 / deblock=1:0:0 / analyse=0x3:0x113 / me=umh / subme=8 / psy=1 / psy_rd=1.00:0.00 / mixed_ref=1 / me_range=16 / chroma_me=1 / trellis=1 / 8x8dct=1 / cqm=0 / deadzone=21,11 / fast_pskip=0 / chroma_qp_offset=-2 / threads=6 / lookahead_threads=1 / sliced_threads=0 / nr=0 / decimate=1 / interlaced=0 / bluray_compat=0 / constrained_intra=0 / bframes=3 / b_pyramid=2 / b_adapt=2 / b_bias=0 / direct=3 / weightb=1 / open_gop=0 / weightp=2 / keyint=250 / keyint_min=25 / scenecut=40 / intra_refresh=0 / rc_lookahead=50 / rc=crf / mbtree=1 / crf=20.0 / qcomp=0.60 / qpmin=0 / qpmax=69 / qpstep=4 / ip_ratio=1.40 / aq=1:1.00
    Encoded date                             : UTC 2012-11-22 19:15:32
    Tagged date                              : UTC 2012-11-22 19:21:52
    
    Audio
    ID                                       : 2
    Format                                   : AAC
    Format/Info                              : Advanced Audio Codec
    Format profile                           : LC
    Codec ID                                 : 40
    Duration                                 : 1h 52mn
    [COLOR="Lime"]Bit rate mode                            : Variable
    Bit rate                                 : 229 Kbps
    Maximum bit rate                         : 247 Kbps
    Channel(s)                               : 2 channels
    Channel positions                        : Front: L R
    Sampling rate                            : 48.0 KHz
    Compression mode                         : Lossy[/COLOR]
    Stream size                              : 185 MiB (14%)
    Encoded date                             : UTC 2012-11-22 19:21:49
    Tagged date                              : UTC 2012-11-22 19:21:52
    
    
    Plots

    Screenshot

    Click Vào Screenshot Xem Lớn Hơn
    Please Click On Image To Enlarge


    [​IMG]

    Download

    [​IMG]

    Fshare 1 link

    Mã:
    http://www.fshare.vn/folder/T86244ZQHT/

    Encoder
    Mã:
    [CENTER] UPPERCUT[/CENTER]

    Uploader
    Mã:
    [CENTER]zuizuivth[/CENTER]
     
  12. zuizuivth

    zuizuivth Đại Gia Lầu Xanh Verified

    Bài viết:
    1,070
    Đã được thích:
    14
    Pretty Dirty 4 - New Sensations

    Front Image

    [​IMG]

    Back Image

    [​IMG]

    Test Screen

    [​IMG]

    General Information
    Mã:
    General
    
    Format                                   : MPEG-4
    Format profile                           : Base Media
    Codec ID                                 : isom
    [COLOR="Lime"]File size                                : 1.14 GiB
    Duration                                 : 2h 6mn[/COLOR]
    Overall bit rate mode                    : Variable
    Overall bit rate                         : 1 289 Kbps
    Encoded date                             : UTC 2013-01-27 04:17:06
    Tagged date                              : UTC 2013-01-27 04:17:06
    
    Video
    ID                                       : 1
    Format                                   : AVC
    Format/Info                              : Advanced Video Codec
    Format profile                           : [email protected]
    Format settings, CABAC                   : Yes
    Format settings, ReFrames                : 5 frames
    Codec ID                                 : avc1
    Codec ID/Info                            : Advanced Video Coding
    Duration                                 : 2h 6mn
    [COLOR="Lime"]Bit rate                                 : 1 153 Kbps
    Maximum bit rate                         : 2 678 Kbps
    Width                                    : 720 pixels
    Height                                   : 400 pixel[/COLOR]s
    Display aspect ratio                     : 16:9
    Frame rate mode                          : Constant
    Frame rate                               : 23.976 fps
    Color space                              : YUV
    Chroma subsampling                       : 4:2:0
    Bit depth                                : 8 bits
    Scan type                                : Progressive
    Bits/(Pixel*Frame)                       : 0.167
    Stream size                              : 1.02 GiB (89%)
    Writing library                          : x264 core 129 r2230 1cffe9f
    Encoding settings                        : cabac=1 / ref=5 / deblock=1:0:0 / analyse=0x3:0x113 / me=umh / subme=8 / psy=1 / psy_rd=1.00:0.00 / mixed_ref=1 / me_range=16 / chroma_me=1 / trellis=1 / 8x8dct=1 / cqm=0 / deadzone=21,11 / fast_pskip=0 / chroma_qp_offset=-2 / threads=12 / lookahead_threads=2 / sliced_threads=0 / nr=0 / decimate=1 / interlaced=0 / bluray_compat=0 / constrained_intra=0 / bframes=3 / b_pyramid=2 / b_adapt=2 / b_bias=0 / direct=3 / weightb=1 / open_gop=0 / weightp=2 / keyint=240 / keyint_min=23 / scenecut=40 / intra_refresh=0 / rc_lookahead=50 / rc=crf / mbtree=1 / crf=19.0 / qcomp=0.60 / qpmin=0 / qpmax=69 / qpstep=4 / ip_ratio=1.40 / aq=1:1.00
    Encoded date                             : UTC 2013-01-27 03:29:14
    Tagged date                              : UTC 2013-01-27 04:17:22
    
    Audio
    ID                                       : 2
    Format                                   : AAC
    Format/Info                              : Advanced Audio Codec
    Format profile                           : LC
    Codec ID                                 : 40
    Duration                                 : 2h 6mn
    [COLOR="Lime"]Bit rate mode                            : Variable
    Bit rate                                 : 132 Kbps
    Maximum bit rate                         : 194 Kbps
    Channel(s)                               : 2 channels
    Channel positions                        : Front: L R
    Sampling rate                            : 48.0 KHz
    Compression mode                         : Lossy[/COLOR]
    Delay relative to video                  : 83ms
    Stream size                              : 119 MiB (10%)
    Encoded date                             : UTC 2013-01-27 04:17:19
    Tagged date                              : UTC 2013-01-27 04:17:22
    
    
    Plots

    Screenshot

    Click Vào Screenshot Xem Lớn Hơn
    Please Click On Image To Enlarge


    [​IMG]

    Download

    [​IMG]

    Fshare 1 link

    Mã:
    http://www.fshare.vn/folder/TZXZ70TDNT/

    Encoder
    Mã:
    [CENTER] XCiTE[/CENTER]

    Uploader
    Mã:
    [CENTER]zuizuivth[/CENTER]
     
  13. zuizuivth

    zuizuivth Đại Gia Lầu Xanh Verified

    Bài viết:
    1,070
    Đã được thích:
    14
    Wannabes

    Front Image

    [​IMG]

    Back Image

    [​IMG]

    Test Screen

    [​IMG]

    General Information
    Mã:
    General
    
    Format                                   : MPEG-4
    Format profile                           : Base Media
    Codec ID                                 : isom
    [COLOR="Lime"]File size                                : 941 MiB
    Duration                                 : 1h 47mn[/COLOR]
    Overall bit rate mode                    : Variable
    Overall bit rate                         : 1 222 Kbps
    Encoded date                             : UTC 2013-01-26 13:54:50
    Tagged date                              : UTC 2013-01-26 13:54:50
    
    Video
    ID                                       : 1
    Format                                   : AVC
    Format/Info                              : Advanced Video Codec
    Format profile                           : [email protected]
    Format settings, CABAC                   : Yes
    Format settings, ReFrames                : 5 frames
    Codec ID                                 : avc1
    Codec ID/Info                            : Advanced Video Coding
    [COLOR="Lime"]Duration                                 : 1h 47mn
    Bit rate                                 : 1 124 Kbps
    Maximum bit rate                         : 2 585 Kbps
    Width                                    : 720 pixels
    Height                                   : 404 pixels[/COLOR]
    Display aspect ratio                     : 16:9
    Frame rate mode                          : Constant
    Frame rate                               : 23.976 fps
    Color space                              : YUV
    Chroma subsampling                       : 4:2:0
    Bit depth                                : 8 bits
    Scan type                                : Progressive
    Bits/(Pixel*Frame)                       : 0.161
    Stream size                              : 866 MiB (92%)
    Title                                    : 264#trackID=1:[email protected]
    Writing library                          : x264 core 129 r2245 bc13772
    Encoding settings                        : cabac=1 / ref=5 / deblock=1:0:0 / analyse=0x3:0x113 / me=umh / subme=8 / psy=1 / psy_rd=1.00:0.00 / mixed_ref=1 / me_range=16 / chroma_me=1 / trellis=1 / 8x8dct=1 / cqm=0 / deadzone=21,11 / fast_pskip=0 / chroma_qp_offset=-2 / threads=12 / lookahead_threads=2 / sliced_threads=0 / nr=0 / decimate=1 / interlaced=0 / bluray_compat=0 / constrained_intra=0 / bframes=3 / b_pyramid=2 / b_adapt=2 / b_bias=0 / direct=3 / weightb=1 / open_gop=0 / weightp=2 / keyint=240 / keyint_min=23 / scenecut=40 / intra_refresh=0 / rc_lookahead=50 / rc=crf / mbtree=1 / crf=20.0 / qcomp=0.60 / qpmin=0 / qpmax=69 / qpstep=4 / ip_ratio=1.40 / aq=1:1.00
    Encoded date                             : UTC 2013-01-26 13:54:50
    Tagged date                              : UTC 2013-01-26 13:55:38
    
    Audio
    ID                                       : 2
    Format                                   : AAC
    Format/Info                              : Advanced Audio Codec
    Format profile                           : LC
    Codec ID                                 : 40
    Duration                                 : 1h 47mn
    [COLOR="Lime"]Bit rate mode                            : Variable
    Bit rate                                 : 94.0 Kbps
    Maximum bit rate                         : 103 Kbps
    Channel(s)                               : 1 channel
    Channel positions                        : Front: C
    Sampling rate                            : 48.0 KHz
    Compression mode                         : Lossy[/COLOR]
    Stream size                              : 72.4 MiB (8%)
    Encoded date                             : UTC 2013-01-26 11:50:02
    Tagged date                              : UTC 2013-01-26 13:55:38
    
    
    Plots

    Screenshot

    Click Vào Screenshot Xem Lớn Hơn
    Please Click On Image To Enlarge


    [​IMG]

    Download

    [​IMG]

    Fshare 1 link

    Mã:
    http://www.fshare.vn/folder/T2XJ1ACH9T/

    Encoder
    Mã:
    [CENTER]DivXfacTory[/CENTER]

    Uploader
    Mã:
    [CENTER]zuizuivth[/CENTER]
     
  14. zuizuivth

    zuizuivth Đại Gia Lầu Xanh Verified

    Bài viết:
    1,070
    Đã được thích:
    14
    Corrupt Schoolgirls 3

    Front Image

    [​IMG]

    Back Image

    [​IMG]

    Test Screen

    [​IMG]

    General Information
    Mã:
    General
    
    Format                                   : MPEG-4
    Format profile                           : Base Media
    Codec ID                                 : isom
    [COLOR="Lime"]File size                                : 848 MiB
    Duration                                 : 1h 39mn[/COLOR]
    Overall bit rate mode                    : Variable
    Overall bit rate                         : 1 193 Kbps
    Encoded date                             : UTC 2013-01-10 06:55:15
    Tagged date                              : UTC 2013-01-10 06:55:15
    
    Video
    ID                                       : 1
    Format                                   : AVC
    Format/Info                              : Advanced Video Codec
    Format profile                           : [email protected]
    Format settings, CABAC                   : Yes
    Format settings, ReFrames                : 5 frames
    Codec ID                                 : avc1
    Codec ID/Info                            : Advanced Video Coding
    Duration                                 : 1h 39mn
    [COLOR="Lime"]Bit rate                                 : 1 067 Kbps
    Maximum bit rate                         : 6 498 Kbps
    Width                                    : 704 pixels
    Height                                   : 396 pixels[/COLOR]
    Display aspect ratio                     : 16:9
    Frame rate mode                          : Constant
    Frame rate                               : 23.976 fps
    Color space                              : YUV
    Chroma subsampling                       : 4:2:0
    Bit depth                                : 8 bits
    Scan type                                : Progressive
    Bits/(Pixel*Frame)                       : 0.160
    Stream size                              : 758 MiB (89%)
    Writing library                          : x264 core 129 r2230 1cffe9f
    Encoding settings                        : cabac=1 / ref=5 / deblock=1:0:0 / analyse=0x3:0x113 / me=umh / subme=8 / psy=1 / psy_rd=1.00:0.00 / mixed_ref=1 / me_range=16 / chroma_me=1 / trellis=1 / 8x8dct=1 / cqm=0 / deadzone=21,11 / fast_pskip=0 / chroma_qp_offset=-2 / threads=3 / lookahead_threads=1 / sliced_threads=0 / nr=0 / decimate=1 / interlaced=0 / bluray_compat=0 / constrained_intra=0 / bframes=3 / b_pyramid=2 / b_adapt=2 / b_bias=0 / direct=3 / weightb=1 / open_gop=0 / weightp=2 / keyint=240 / keyint_min=23 / scenecut=40 / intra_refresh=0 / rc_lookahead=50 / rc=crf / mbtree=1 / crf=20.0 / qcomp=0.60 / qpmin=0 / qpmax=69 / qpstep=4 / ip_ratio=1.40 / aq=1:1.00
    Encoded date                             : UTC 2013-01-10 05:07:27
    Tagged date                              : UTC 2013-01-10 06:55:27
    
    Audio
    ID                                       : 2
    Format                                   : AAC
    Format/Info                              : Advanced Audio Codec
    Format profile                           : LC
    Codec ID                                 : 40
    Duration                                 : 1h 39mn
    [COLOR="Lime"]Bit rate mode                            : Variable
    Bit rate                                 : 122 Kbps
    Maximum bit rate                         : 138 Kbps
    Channel(s)                               : 2 channels
    Channel positions                        : Front: L R
    Sampling rate                            : 48.0 KHz
    Compression mode                         : Lossy[/COLOR]
    Delay relative to video                  : 83ms
    Stream size                              : 86.8 MiB (10%)
    Language                                 : English
    Encoded date                             : UTC 2013-01-10 06:55:24
    Tagged date                              : UTC 2013-01-10 06:55:27
    
    
    Plots

    Screenshot

    Click Vào Screenshot Xem Lớn Hơn
    Please Click On Image To Enlarge


    [​IMG]

    Download

    [​IMG]

    Fshare 1 link

    Mã:
    http://www.fshare.vn/folder/T52PA4G6RT/

    Encoder
    Mã:
    [CENTER] DivXfacTory[/CENTER]

    Uploader
    Mã:
    [CENTER]zuizuivth[/CENTER]
     
  15. zuizuivth

    zuizuivth Đại Gia Lầu Xanh Verified

    Bài viết:
    1,070
    Đã được thích:
    14
    Eurotic Encounters 3

    Front Image

    [​IMG]

    Back Image

    [​IMG]

    Test Screen

    [​IMG]

    General Information
    Mã:
    General
    
    Format                                   : MPEG-4
    Format profile                           : Base Media
    Codec ID                                 : isom
    [COLOR="Lime"]File size                                : 733 MiB
    Duration                                 : 1h 38mn[/COLOR]
    Overall bit rate mode                    : Variable
    Overall bit rate                         : 1 043 Kbps
    Encoded date                             : UTC 2013-01-13 15:00:40
    Tagged date                              : UTC 2013-01-13 15:00:40
    
    Video
    ID                                       : 1
    Format                                   : AVC
    Format/Info                              : Advanced Video Codec
    Format profile                           : [email protected]
    Format settings, CABAC                   : Yes
    Format settings, ReFrames                : 5 frames
    Codec ID                                 : avc1
    Codec ID/Info                            : Advanced Video Coding
    Duration                                 : 1h 38mn
    [COLOR="Lime"]Bit rate                                 : 871 Kbps
    Maximum bit rate                         : 2 380 Kbps
    Width                                    : 704 pixels
    Height                                   : 394 pixels[/COLOR]
    Display aspect ratio                     : 16:9
    Frame rate mode                          : Constant
    Frame rate                               : 23.976 fps
    Color space                              : YUV
    Chroma subsampling                       : 4:2:0
    Bit depth                                : 8 bits
    Scan type                                : Progressive
    Bits/(Pixel*Frame)                       : 0.131
    Stream size                              : 613 MiB (84%)
    Title                                    : 264#trackID=1:[email protected]
    Writing library                          : x264 core 129 r2245 bc13772
    Encoding settings                        : cabac=1 / ref=5 / deblock=1:0:0 / analyse=0x3:0x113 / me=umh / subme=8 / psy=1 / psy_rd=1.00:0.00 / mixed_ref=1 / me_range=16 / chroma_me=1 / trellis=1 / 8x8dct=1 / cqm=0 / deadzone=21,11 / fast_pskip=0 / chroma_qp_offset=-2 / threads=6 / lookahead_threads=1 / sliced_threads=0 / nr=0 / decimate=1 / interlaced=0 / bluray_compat=0 / constrained_intra=0 / bframes=3 / b_pyramid=2 / b_adapt=2 / b_bias=0 / direct=3 / weightb=1 / open_gop=0 / weightp=2 / keyint=240 / keyint_min=23 / scenecut=40 / intra_refresh=0 / rc_lookahead=50 / rc=crf / mbtree=1 / crf=19.0 / qcomp=0.60 / qpmin=0 / qpmax=69 / qpstep=4 / ip_ratio=1.40 / aq=1:1.00
    Encoded date                             : UTC 2013-01-13 15:00:40
    Tagged date                              : UTC 2013-01-13 15:00:57
    
    Audio
    ID                                       : 2
    Format                                   : AAC
    Format/Info                              : Advanced Audio Codec
    Format profile                           : LC
    Codec ID                                 : 40
    Duration                                 : 1h 38mn
    [COLOR="Lime"]Bit rate mode                            : Variable
    Bit rate                                 : 167 Kbps
    Maximum bit rate                         : 195 Kbps
    Channel(s)                               : 2 channels
    Channel positions                        : Front: L R
    Sampling rate                            : 48.0 KHz
    Compression mode                         : Lossy[/COLOR]
    Stream size                              : 118 MiB (16%)
    Encoded date                             : UTC 2013-01-13 14:18:02
    Tagged date                              : UTC 2013-01-13 15:00:57
    
    
    Plots
    Screenshot

    Click Vào Screenshot Xem Lớn Hơn
    Please Click On Image To Enlarge


    [​IMG]

    Download

    [​IMG]

    Fshare 1 link

    Mã:
    http://www.fshare.vn/folder/T47923D9VT/

    Encoder
    Mã:
    [CENTER] Pr0nStarS[/CENTER]

    Uploader
    Mã:
    [CENTER]zuizuivth[/CENTER]
     
  16. LyTHong_197X

    LyTHong_197X Còn Bú Sữa Mẹ Verified

    Bài viết:
    20
    Đã được thích:
    1
    bác ơi , e rất thích film của marc dorcel , mà hiện tai nguồn link da so la torrent , down chán lắm , bác có thể làm thêm film củA HÃNG NÀY KO
     
  17. zuizuivth

    zuizuivth Đại Gia Lầu Xanh Verified

    Bài viết:
    1,070
    Đã được thích:
    14
    Submission Of Emma Marx - New Sensations​



    Front Image

    [​IMG]

    Back Image

    [​IMG]

    Test Screen

    [​IMG]

    General Information

    Mã:
    General
    
    Format                                   : MPEG-4
    Format profile                           : Base Media
    Codec ID                                 : isom
    [COLOR="Lime"]File size                                : 712 MiB
    Duration                                 : 1h 56mn[/COLOR]
    Overall bit rate mode                    : Variable
    Overall bit rate                         : 853 Kbps
    Encoded date                             : UTC 2013-02-14 14:14:13
    Tagged date                              : UTC 2013-02-14 14:14:13
    
    Video
    ID                                       : 1
    Format                                   : AVC
    Format/Info                              : Advanced Video Codec
    Format profile                           : [email protected]
    Format settings, CABAC                   : Yes
    Format settings, ReFrames                : 5 frames
    Codec ID                                 : avc1
    Codec ID/Info                            : Advanced Video Coding
    Duration                                 : 1h 56mn
    [COLOR="Lime"]Bit rate                                 : 693 Kbps
    Maximum bit rate                         : 2 471 Kbps
    Width                                    : 720 pixels
    Height                                   : 404 pixels[/COLOR]
    Display aspect ratio                     : 16:9
    Frame rate mode                          : Constant
    Frame rate                               : 23.976 fps
    Color space                              : YUV
    Chroma subsampling                       : 4:2:0
    Bit depth                                : 8 bits
    Scan type                                : Progressive
    Bits/(Pixel*Frame)                       : 0.099
    Stream size                              : 578 MiB (81%)
    Title                                    : 264#trackID=1:[email protected]
    Writing library                          : x264 core 129 r2245 bc13772
    Encoding settings                        : cabac=1 / ref=5 / deblock=1:0:0 / analyse=0x3:0x113 / me=umh / subme=8 / psy=1 / psy_rd=1.00:0.00 / mixed_ref=1 / me_range=16 / chroma_me=1 / trellis=1 / 8x8dct=1 / cqm=0 / deadzone=21,11 / fast_pskip=0 / chroma_qp_offset=-2 / threads=12 / lookahead_threads=2 / sliced_threads=0 / nr=0 / decimate=1 / interlaced=0 / bluray_compat=0 / constrained_intra=0 / bframes=3 / b_pyramid=2 / b_adapt=2 / b_bias=0 / direct=3 / weightb=1 / open_gop=0 / weightp=2 / keyint=240 / keyint_min=23 / scenecut=40 / intra_refresh=0 / rc_lookahead=50 / rc=crf / mbtree=1 / crf=20.0 / qcomp=0.60 / qpmin=0 / qpmax=69 / qpstep=4 / ip_ratio=1.40 / aq=1:1.00
    Encoded date                             : UTC 2013-02-14 14:14:13
    Tagged date                              : UTC 2013-02-14 14:14:48
    
    Audio
    ID                                       : 2
    Format                                   : AAC
    Format/Info                              : Advanced Audio Codec
    Format profile                           : LC
    Codec ID                                 : 40
    Duration                                 : 1h 56mn
    [COLOR="Lime"]Bit rate mode                            : Variable
    Bit rate                                 : 156 Kbps
    Maximum bit rate                         : 197 Kbps
    Channel(s)                               : 2 channels
    Channel positions                        : Front: L R
    Sampling rate                            : 48.0 KHz
    Compression mode                         : Lossy[/COLOR]
    Stream size                              : 130 MiB (18%)
    Language                                 : English
    Encoded date                             : UTC 2013-02-14 13:32:08
    Tagged date                              : UTC 2013-02-14 14:14:48
    
    
    Plots

    Screenshot

    Click Vào Screenshot Xem Lớn Hơn
    Please Click On Image To Enlarge


    [​IMG]

    Download

    [​IMG]

    Fshare 1 link

    Mã:
    http://www.fshare.vn/folder/TZXADPM6NT/

    Uploader
    Mã:
    [CENTER]zuizuivth[/CENTER]
     
  18. zuizuivth

    zuizuivth Đại Gia Lầu Xanh Verified

    Bài viết:
    1,070
    Đã được thích:
    14
    Little Russian Toysluts - Evil Playground

    Front Image

    [​IMG]

    Back Image

    [​IMG]

    Test Screen

    [​IMG]

    General Information

    Mã:
    General
    
    Format                                   : MPEG-4
    Format profile                           : Base Media
    Codec ID                                 : isom
    [COLOR="Lime"]File size                                : 825 MiB
    Duration                                 : 2h 0mn[/COLOR]
    Overall bit rate mode                    : Variable
    Overall bit rate                         : 953 Kbps
    Encoded date                             : UTC 2013-02-15 19:50:47
    Tagged date                              : UTC 2013-02-15 19:50:47
    
    Video
    ID                                       : 1
    Format                                   : AVC
    Format/Info                              : Advanced Video Codec
    Format profile                           : [email protected]
    Format settings, CABAC                   : Yes
    Format settings, ReFrames                : 5 frames
    Codec ID                                 : avc1
    Codec ID/Info                            : Advanced Video Coding
    Duration                                 : 2h 0mn
    [COLOR="Lime"]Bit rate                                 : 853 Kbps
    Maximum bit rate                         : 2 020 Kbps
    Width                                    : 704 pixels
    Height                                   : 396 pixels[/COLOR]
    Display aspect ratio                     : 16:9
    Frame rate mode                          : Constant
    Frame rate                               : 29.970 fps
    Color space                              : YUV
    Chroma subsampling                       : 4:2:0
    Bit depth                                : 8 bits
    Scan type                                : Progressive
    Bits/(Pixel*Frame)                       : 0.102
    Stream size                              : 738 MiB (89%)
    Writing library                          : x264 core 129 r2245 bc13772
    Encoding settings                        : cabac=1 / ref=5 / deblock=1:0:0 / analyse=0x3:0x133 / me=umh / subme=8 / psy=1 / psy_rd=1.00:0.00 / mixed_ref=1 / me_range=16 / chroma_me=1 / trellis=1 / 8x8dct=1 / cqm=0 / deadzone=21,11 / fast_pskip=0 / chroma_qp_offset=-2 / threads=12 / lookahead_threads=2 / sliced_threads=0 / nr=0 / decimate=1 / interlaced=0 / bluray_compat=0 / constrained_intra=0 / bframes=3 / b_pyramid=2 / b_adapt=2 / b_bias=0 / direct=3 / weightb=1 / open_gop=0 / weightp=2 / keyint=300 / keyint_min=29 / scenecut=40 / intra_refresh=0 / rc_lookahead=50 / rc=crf / mbtree=1 / crf=20.0 / qcomp=0.60 / qpmin=0 / qpmax=69 / qpstep=4 / ip_ratio=1.40 / aq=1:1.00
    Encoded date                             : UTC 2013-02-15 19:22:11
    Tagged date                              : UTC 2013-02-15 19:50:50
    
    Audio
    ID                                       : 2
    Format                                   : AAC
    Format/Info                              : Advanced Audio Codec
    Format profile                           : LC
    Codec ID                                 : 40
    Duration                                 : 2h 0mn
    [COLOR="Lime"]Bit rate mode                            : Variable
    Bit rate                                 : 96.0 Kbps
    Maximum bit rate                         : 106 Kbps
    Channel(s)                               : 2 channels
    Channel positions                        : Front: L R
    Sampling rate                            : 48.0 KHz
    Compression mode                         : Lossy[/COLOR]
    Delay relative to video                  : 67ms
    Stream size                              : 83.0 MiB (10%)
    Language                                 : English
    Encoded date                             : UTC 2013-02-15 19:16:09
    Tagged date                              : UTC 2013-02-15 19:50:50
    
    
    Plots

    Screenshot

    Click Vào Screenshot Xem Lớn Hơn
    Please Click On Image To Enlarge


    [​IMG]

    Download

    [​IMG]

    Fshare 1 link

    Mã:
    http://www.fshare.vn/folder/TB08TX9VDT/

    Uploader
    Mã:
    [CENTER]zuizuivth[/CENTER]
     
  19. zuizuivth

    zuizuivth Đại Gia Lầu Xanh Verified

    Bài viết:
    1,070
    Đã được thích:
    14
    Big Cock Teen Addictio 3

    Front Image

    [​IMG]

    Back Image

    [​IMG]

    Test Screen

    [​IMG]

    General Information
    Mã:
    General
    
    Format                                   : AVI
    Format/Info                              : Audio Video Interleave
    [COLOR="Lime"]File size                                : 615 MiB
    Duration                                 : 1h 4mn[/COLOR]
    Overall bit rate                         : 1 334 Kbps
    Writing application                      : Lavf51.12.1
    
    Video
    ID                                       : 0
    Format                                   : xvid
    Codec ID                                 : xvid
    Duration                                 : 1h 4mn
    [COLOR="Lime"]Bit rate                                 : 1 193 Kbps
    Width                                    : 640 pixels
    Height                                   : 480 pixels[/COLOR]
    Display aspect ratio                     : 4:3
    Frame rate                               : 29.970 fps
    Bits/(Pixel*Frame)                       : 0.130
    Stream size                              : 550 MiB (89%)
    
    Audio
    ID                                       : 1
    Format                                   : MPEG Audio
    Format version                           : Version 1
    Format profile                           : Layer 3
    Mode                                     : Joint stereo
    Mode extension                           : MS Stereo
    Codec ID                                 : 55
    Codec ID/Hint                            : MP3
    [COLOR="Lime"]Duration                                 : 1h 4mn
    Bit rate mode                            : Constant
    Bit rate                                 : 128 Kbps
    Channel(s)                               : 2 channels
    Sampling rate                            : 44.1 KHz
    Compression mode                         : Lossy[/COLOR]
    Stream size                              : 59.0 MiB (10%)
    Alignment                                : Aligned on interleaves
    Interleave, duration                     : 26 ms (0.78 video frame)
    Writing library                          : LAME3.97
    
    
    Plots

    Screenshot

    Click Vào Screenshot Xem Lớn Hơn
    Please Click On Image To Enlarge


    [​IMG]

    Download

    [​IMG]

    Fshare 1 link

    Mã:
    http://www.fshare.vn/folder/TFCZB5G81T/

    Uploader
    Mã:
    [CENTER]zuizuivth[/CENTER]
     
  20. zuizuivth

    zuizuivth Đại Gia Lầu Xanh Verified

    Bài viết:
    1,070
    Đã được thích:
    14
    From Teen Ass to Teen Mouth 16

    Front Image

    [​IMG]

    Back Image

    [​IMG]

    Test Screen

    [​IMG]

    General Information

    Mã:
    General
    
    Format                                   : MPEG-4
    Format profile                           : Base Media
    Codec ID                                 : isom
    [COLOR="Lime"]File size                                : 1 004 MiB
    Duration                                 : 2h 12mn[/COLOR]
    Overall bit rate mode                    : Variable
    Overall bit rate                         : 1 062 Kbps
    Encoded date                             : UTC 2013-02-12 18:09:20
    Tagged date                              : UTC 2013-02-12 18:09:20
    
    Video
    ID                                       : 1
    Format                                   : AVC
    Format/Info                              : Advanced Video Codec
    Format profile                           : [email protected]
    Format settings, CABAC                   : Yes
    Format settings, ReFrames                : 5 frames
    Codec ID                                 : avc1
    Codec ID/Info                            : Advanced Video Coding
    Duration                                 : 2h 12mn
    [COLOR="Lime"]Bit rate                                 : 887 Kbps
    Maximum bit rate                         : 1 944 Kbps
    Width                                    : 720 pixels
    Height                                   : 400 pixels[/COLOR]
    Display aspect ratio                     : 16:9
    Frame rate mode                          : Constant
    Frame rate                               : 25.000 fps
    Color space                              : YUV
    Chroma subsampling                       : 4:2:0
    Bit depth                                : 8 bits
    Scan type                                : Progressive
    Bits/(Pixel*Frame)                       : 0.123
    Stream size                              : 839 MiB (84%)
    Title                                    : 264#trackID=1:[email protected]
    Writing library                          : x264 core 129 r2245 bc13772
    Encoding settings                        : cabac=1 / ref=5 / deblock=1:0:0 / analyse=0x3:0x113 / me=umh / subme=8 / psy=1 / psy_rd=1.00:0.00 / mixed_ref=1 / me_range=16 / chroma_me=1 / trellis=1 / 8x8dct=1 / cqm=0 / deadzone=21,11 / fast_pskip=0 / chroma_qp_offset=-2 / threads=6 / lookahead_threads=1 / sliced_threads=0 / nr=0 / decimate=1 / interlaced=0 / bluray_compat=0 / constrained_intra=0 / bframes=3 / b_pyramid=2 / b_adapt=2 / b_bias=0 / direct=3 / weightb=1 / open_gop=0 / weightp=2 / keyint=250 / keyint_min=25 / scenecut=40 / intra_refresh=0 / rc_lookahead=50 / rc=crf / mbtree=1 / crf=20.0 / qcomp=0.60 / qpmin=0 / qpmax=69 / qpstep=4 / ip_ratio=1.40 / aq=1:1.00
    Encoded date                             : UTC 2013-02-12 18:09:20
    Tagged date                              : UTC 2013-02-12 18:19:10
    
    Audio
    ID                                       : 2
    Format                                   : AAC
    Format/Info                              : Advanced Audio Codec
    Format profile                           : LC
    Codec ID                                 : 40
    Duration                                 : 2h 12mn
    [COLOR="Lime"]Bit rate mode                            : Variable
    Bit rate                                 : 171 Kbps
    Maximum bit rate                         : 197 Kbps
    Channel(s)                               : 2 channels
    Channel positions                        : Front: L R
    Sampling rate                            : 48.0 KHz
    Compression mode                         : Lossy[/COLOR]
    Stream size                              : 161 MiB (16%)
    Language                                 : English
    Encoded date                             : UTC 2013-02-12 16:29:24
    Tagged date                              : UTC 2013-02-12 18:19:10
    
    
    Plots

    Screenshot

    Click Vào Screenshot Xem Lớn Hơn
    Please Click On Image To Enlarge


    [​IMG]

    Download

    [​IMG]

    Fshare 1 link

    Mã:
    http://www.fshare.vn/folder/TJA9GN7GJT/


    Uploader
    Mã:
    [CENTER]zuizuivth[/CENTER]
     
Đang tải...
Similar Threads Diễn đàn Date
[ Fshare 1 link ] Tập hợp phim Châu Âu 2014 Phim Sex Châu Âu FULL - Western Porn FULL Movie 7/1/14
[Fshare - 1 Link] Bộ sưu tập Fake Agent Phim Sex Châu Âu FULL - Western Porn FULL Movie 21/12/13
[Fshare -1 link]Bộ sưu tập phim của Dreams-HD toàn girl xinh và là 1080 nhé Phim Sex Châu Âu FULL - Western Porn FULL Movie 1/10/13
[FSHARE 1 LINK] Tập Hợp Phim Châu Âu HD Phim Sex Châu Âu FULL - Western Porn FULL Movie 16/8/13
[ Fshare 1 link ] Tuyển tập châu Âu Part 2 Phim Sex Châu Âu FULL - Western Porn FULL Movie 7/7/13

Chia sẻ trang này