[FSHARE 1 LINK] TỔNG HỢP TOÀN BỘ X-Art 1080P từ 2009 đến nay (Còn update)

Thảo luận trong 'Tải Phim Sex HD BlueRay' bắt đầu bởi luffy7028, 28/12/12.

  1. luffy7028

    luffy7028 Đại Gia Lầu Xanh Verified

    Bài viết:
    6,452
    Đã được thích:
    10
    X-Art - 2009-2012.09 Pack - 1080P Web-dl Mov M-Team - 135 GB - Updating...


    [​IMG]

    Mình vẫn còn update tiếp, 135GB là từ 2009 đến tháng 9/2012
    Sẽ cố gắng cập nhật nhanh nhất có thể cho bà con
    Để tránh down lại bản đã có các bác chú ý tên file
    Ví dụ: X-Art - 2009.10.23.carla_girl_in_my_shower_1920x1080.mov
    2009 là năm, 10 là tháng còn 23 là ngày.

    Mã:
    Size: 135.37 GB   
    Medium: Encode   
    Codec: MPEG-4   
    Standard: 1080p   
    Processing: US/EU   
    Team: M-Team
    [​IMG]

    Demo tech info:

    Mã:
    Overall bit rate mode                    : Variable
    Overall bit rate                         : 2 298 Kbps
    Maximum Overall bit rate                 : 2 289 Kbps
    Movie name                               : x-art.com
    Encoded date                             : UTC 2009-11-20 07:18:02.000
    Writing application                      : Flip4Mac WMV Export Component for QuickTime (Mac) 2237鐱픗B1耸í�댕䭽ᒕᒗヤ솬쳯
    Copyright                                : x-art.com
    
    Video
    ID                                       : 2
    Format                                   : VC-1
    Format profile                           : [email protected]
    Codec ID                                 : WMVA
    Codec ID/Info                            : Windows Media Video
    Codec ID/Hint                            : WMV
    Description of the codec                 : Windows Media Video V9 Advanced - 1280 x 720, 29.97 fps, Q=90 (VBR)
    Duration                                 : 5mn 31s
    Bit rate                                 : 2 097 Kbps
    Width                                    : 1 280 pixels
    Height                                   : 720 pixels
    Display aspect ratio                     : 16:9
    Frame rate                               : 29.970 fps
    Chroma subsampling                       : 4:2:0
    Bit depth                                : 8 bits
    Scan type                                : Progressive
    Compression mode                         : Lossy
    Bits/(Pixel*Frame)                       : 0.076
    Stream size                              : 82.9 MiB (91%)
    Language                                 : English (US)
    
    Audio
    ID                                       : 1
    Format                                   : WMA
    Format version                           : Version 2
    Codec ID                                 : 161
    Codec ID/Info                            : Windows Media Audio
    Description of the codec                 : Windows Media Audio V9 Standard - 192 kbps, 44 kHz, 16 bit, Stereo (CBR)
    Duration                                 : 5mn 31s
    Bit rate mode                            : Variable
    Bit rate                                 : 192 Kbps
    Channel(s)                               : 2 channels
    Sampling rate                            : 44.1 KHz
    Bit depth                                : 16 bits
    Stream size                              : 7.60 MiB (8%)
    Language                                 : English (US)
    
    IMG:
    [​IMG] [​IMG] [​IMG] [​IMG] [​IMG] [​IMG] [​IMG] [​IMG] [​IMG] [​IMG]

    Download:
    Mã:
    http://www.fshare.vn/folder/TTPYAV0S3T/
     
    Đang tải...


  2. luffy7028

    luffy7028 Đại Gia Lầu Xanh Verified

    Bài viết:
    6,452
    Đã được thích:
    10
  3. luffy7028

    luffy7028 Đại Gia Lầu Xanh Verified

    Bài viết:
    6,452
    Đã được thích:
    10
    2012-11-02 - Still With Me - Kaylee

    IMG:
    [​IMG]

    [​IMG]
    Download:
    Mã:
    http://www.fshare.vn/file/TBBZGNM7QT/
     
  4. luffy7028

    luffy7028 Đại Gia Lầu Xanh Verified

    Bài viết:
    6,452
    Đã được thích:
    10
    2012-11-10 - Vacation Fantasy - Susie

    IMG:
    [​IMG] [​IMG]
    Download:
    Mã:
    http://www.fshare.vn/file/T92ZRVFAFT/
     
  5. luffy7028

    luffy7028 Đại Gia Lầu Xanh Verified

    Bài viết:
    6,452
    Đã được thích:
    10
    2012-11-13 - Lovers Quarrel - Ivy

    IMG:
    [​IMG]

    [​IMG]
    Download:
    Mã:
    http://www.fshare.vn/file/TH8KVKH2NT/
     
  6. luffy7028

    luffy7028 Đại Gia Lầu Xanh Verified

    Bài viết:
    6,452
    Đã được thích:
    10
    2012-11-15 - Finding Elysium - Susie Kaylee

    IMG:
    [​IMG]

    [​IMG]
    Download:
    Mã:
    http://www.fshare.vn/file/T5RFQNSB3T/
     
  7. luffy7028

    luffy7028 Đại Gia Lầu Xanh Verified

    Bài viết:
    6,452
    Đã được thích:
    10
    2012-11-20 - By Myself - Baby

    IMG:
    [​IMG] [​IMG]
    Download:
    Mã:
    http://www.fshare.vn/file/T5GZNG8SKT/
     
  8. luffy7028

    luffy7028 Đại Gia Lầu Xanh Verified

    Bài viết:
    6,452
    Đã được thích:
    10
    2012-11-27 - Prelude to Passion - Gianna

    IMG:
    [​IMG]

    [​IMG]
    Download:
    Mã:
    http://www.fshare.vn/file/TC9VPM3YMT/
     
  9. luffy7028

    luffy7028 Đại Gia Lầu Xanh Verified

    Bài viết:
    6,452
    Đã được thích:
    10
    2012-11-28 - Introducing Angelica - Angelica

    IMG:
    [​IMG]

    [​IMG]
    Download:
    Mã:
    http://www.fshare.vn/file/TG6J15DPHT/
     
  10. luffy7028

    luffy7028 Đại Gia Lầu Xanh Verified

    Bài viết:
    6,452
    Đã được thích:
    10
    2012-11-22 - Tarde Espanola - Addison

    IMG:
    [​IMG] [​IMG]
    Download:
    Mã:
    http://www.fshare.vn/file/TPD0X1CT2T/
     
  11. luffy7028

    luffy7028 Đại Gia Lầu Xanh Verified

    Bài viết:
    6,452
    Đã được thích:
    10
    2012-11-24 - Heart & Soul - Connie

    IMG:
    [​IMG]

    [​IMG]
    Download:
    Mã:
    http://www.fshare.vn/file/T3RHHVMW7T/
     
  12. luffy7028

    luffy7028 Đại Gia Lầu Xanh Verified

    Bài viết:
    6,452
    Đã được thích:
    10
    Angelica.Naughty.Nice.XArt.2012.FullHD_iyutero.com .mov
    2012-12-24


    IMG:
    [​IMG]

    [​IMG]

    [​IMG]
    Download:
    Mã:
    http://www.fshare.vn/file/TK7WPQZMVT/
     
  13. luffy7028

    luffy7028 Đại Gia Lầu Xanh Verified

    Bài viết:
    6,452
    Đã được thích:
    10
    X-ART-Good Vibrations - Silvie Ariel

    IMG:

    [​IMG]

    Download:
    Mã:
    http://www.fshare.vn/folder/P0Z8E1DRLJ
     
  14. luffy7028

    luffy7028 Đại Gia Lầu Xanh Verified

    Bài viết:
    6,452
    Đã được thích:
    10
    Elisa A A Light Touch WowGirls 2012 1080p

    IMG:

    [​IMG] [​IMG]
    Download:
    Mã:
    http://www.fshare.vn/file/TNNWTJZAFT/
     
  15. mrgaitri

    mrgaitri Còn Bú Sữa Mẹ Verified

    Bài viết:
    18
    Đã được thích:
    0
    Sao không down được ở folder hở bác. Bị lỗi gì chăng. click down xong chẳng thấy bắt link gì cả mặc dù có tk Fshare đủ cả.
     
  16. adnblx

    adnblx Còn Bú Sữa Mẹ Verified

    Bài viết:
    23
    Đã được thích:
    0
    mỗi người một sở thích bạn, chủ thớt cứ up hết đi, mình thích thể loại Les lắm.
     
  17. vianh

    vianh Đại Gia Lầu Xanh The VIP

    Bài viết:
    14,934
    Đã được thích:
    322
    Copy rồi paste vào Google ,sẽ biết rồi down cái mình thích
     
  18. luffy7028

    luffy7028 Đại Gia Lầu Xanh Verified

    Bài viết:
    6,452
    Đã được thích:
    10
    Các bác còn máu me X-art thì qua đây nhé, năm mới chuyển topic mới :D
     
  19. Lệ Tình

    Lệ Tình Free Sex For All The VIP

    Bài viết:
    6,205
    Đã được thích:
    33
    Xem xong hết BST này chắc đui mắt lun quá :))
     

Chia sẻ trang này