1. Hiện tại có nhiều bạn ko nhận được Email kích hoạt từ hệ thống, BQT đã rà soát và thấy đa số các trường hợp này dùng GMAIL. Trong thời gian chờ khắc phục, các bạn có thể tạm dùng các email khác để đăng ký và nhận email kích hoạt ( Yahoo, hotmail,....). Xin cảm ơn
    Dismiss Notice

[Fshare] Collection's : NaughtyAmerica 4K - Bluray 3D - Bluray High Definition

Thảo luận trong 'Phim Sex HD BlueRay Link Nhanh - Fast Download' bắt đầu bởi noelhao, 4/6/14.

  1. noelhao

    noelhao Ultra HD4K Thành viên BQT

    Bài viết:
    6,241
    Đã được thích:
    1,079
    PornFidelity - Nekane Sweet (Curve Appeal 4) 2016 4K

    [​IMG]

    Screenshot:


    [​IMG]

    Mediainfo:
    Mã:
    PornFidelity - Nekane Sweet (Curve Appeal 4) 2016 4K.mp4
    Format                      : MPEG-4
    Format profile              : Base Media
    Codec ID                    : isom (isom/iso2/avc1/mp41)
    File size                   : 5.82 GiB
    Duration                    : 30 min 30 s
    Overall bit rate mode       : Variable
    Overall bit rate            : 27.3 Mb/s
    Writing application         : Lavf57.56.100
    IsTruncated                 : Yes
    
    Video
    ID                          : 1
    Format                      : AVC
    Format/Info                 : Advanced Video Codec
    Format profile              : [email protected]
    Format settings, CABAC      : Yes
    Format settings, ReFrames   : 4 frames
    Codec ID                    : avc1
    Codec ID/Info               : Advanced Video Coding
    Duration                    : 30 min 30 s
    Bit rate mode               : Variable
    Bit rate                    : 27.0 Mb/s
    Maximum bit rate            : 32.4 Mb/s
    Width                       : 3 840 pixels
    Height                      : 2 160 pixels
    Display aspect ratio        : 16:9
    Frame rate mode             : Constant
    Frame rate                  : 23.976 (23976/1000) FPS
    Original frame rate         : 23.976 (24000/1001) FPS
    Standard                    : NTSC
    Color space                 : YUV
    Chroma subsampling          : 4:2:0
    Bit depth                   : 8 bits
    Scan type                   : Progressive
    Bits/(Pixel*Frame)          : 0.136
    Stream size                 : 5.76 GiB (99%)
    Color range                 : Limited
    Color primaries             : BT.709
    Transfer characteristics    : BT.709
    Matrix coefficients         : BT.709
    
    Audio
    ID                          : 2
    Format                      : AAC
    Format/Info                 : Advanced Audio Codec
    Format profile              : LC
    Codec ID                    : 40
    Duration                    : 30 min 30 s
    Duration_LastFrame          : -19 ms
    Bit rate mode               : Constant
    Bit rate                    : 256 kb/s
    Channel(s)                  : 2 channels
    Channel positions           : Front: L R
    Sampling rate               : 48.0 kHz
    Frame rate                  : 46.875 FPS (1024 spf)
    Compression mode            : Lossy
    Stream size                 : 55.9 MiB (1%)
    Default                     : Yes
    Alternate group             : 1
    
    Pass giải nén (Extract rar): DCER2A
    Direct link:
    Mã:
    https://www.fshare.vn/file/MG7BPDGUMABF
     
  2. noelhao

    noelhao Ultra HD4K Thành viên BQT

    Bài viết:
    6,241
    Đã được thích:
    1,079
    Private Specials 161 - Anal Innocence 2017 4K

    [​IMG]

    Screenshot:

    [​IMG]

    Mediainfo:
    Mã:
    Private Specials 161 - Anal Innocence 2017 4K\Scene 1. Apolonia Lapiedra.mp4
    Format                      : MPEG-4
    Format profile              : Base Media / Version 2
    Codec ID                    : mp42 (mp42/isom)
    File size                   : 3.20 GiB
    Duration                    : 30 min 4 s
    Overall bit rate mode       : Variable
    Overall bit rate            : 15.2 Mb/s
    Encoded date                : UTC 1970-01-01 00:00:00
    Tagged date                 : UTC 1970-01-01 00:00:00
    Writing application         : Lavf52.34.0
    
    Video
    ID                          : 1
    Format                      : AVC
    Format/Info                 : Advanced Video Codec
    Format profile              : [email protected]
    Format settings, CABAC      : Yes
    Format settings, ReFrames   : 3 frames
    Format settings, GOP        : M=3, N=25
    Codec ID                    : avc1
    Codec ID/Info               : Advanced Video Coding
    Duration                    : 30 min 4 s
    Bit rate mode               : Constant
    Bit rate                    : 15.1 Mb/s
    Width                       : 3 840 pixels
    Height                      : 2 160 pixels
    Display aspect ratio        : 16:9
    Frame rate mode             : Constant
    Frame rate                  : 25.000 FPS
    Standard                    : PAL
    Color space                 : YUV
    Chroma subsampling          : 4:2:0
    Bit depth                   : 8 bits
    Scan type                   : Progressive
    Bits/(Pixel*Frame)          : 0.073
    Stream size                 : 3.17 GiB (99%)
    Language                    : English
    Encoded date                : UTC 1970-01-01 00:00:00
    Tagged date                 : UTC 1970-01-01 00:00:00
    Color range                 : Limited
    Color primaries             : BT.709
    Transfer characteristics    : BT.709
    Matrix coefficients         : BT.709
    
    Audio
    ID                          : 2
    Format                      : AAC
    Format/Info                 : Advanced Audio Codec
    Format profile              : LC
    Codec ID                    : 40
    Duration                    : 30 min 4 s
    Bit rate mode               : Variable
    Bit rate                    : 126 kb/s
    Channel(s)                  : 2 channels
    Channel positions           : Front: L R
    Sampling rate               : 44.1 kHz
    Frame rate                  : 43.066 FPS (1024 spf)
    Compression mode            : Lossy
    Stream size                 : 27.0 MiB (1%)
    Language                    : English
    Encoded date                : UTC 1970-01-01 00:00:00
    Tagged date                 : UTC 1970-01-01 00:00:00
    
    Pass giải nén (Extract rar): IPH7Z6
    Direct link:
    Mã:
    https://www.fshare.vn/file/NICW87Z5FHVN
     
  3. noelhao

    noelhao Ultra HD4K Thành viên BQT

    Bài viết:
    6,241
    Đã được thích:
    1,079
    Private Specials 162 - Hot Hitchhikers 2016 4K

    [​IMG]

    Screenshot:

    [​IMG]

    Media info:
    Mã:
    Private Specials 162 - Hot Hitchhikers 2016 4K\Scene 1. Luna Rival.mp4
    Format                      : MPEG-4
    Format profile              : Base Media / Version 2
    Codec ID                    : mp42 (mp42/isom)
    File size                   : 3.12 GiB
    Duration                    : 29 min 22 s
    Overall bit rate mode       : Variable
    Overall bit rate            : 15.2 Mb/s
    Encoded date                : UTC 1970-01-01 00:00:00
    Tagged date                 : UTC 1970-01-01 00:00:00
    Writing application         : Lavf52.34.0
    
    Video
    ID                          : 1
    Format                      : AVC
    Format/Info                 : Advanced Video Codec
    Format profile              : [email protected]
    Format settings, CABAC      : Yes
    Format settings, ReFrames   : 3 frames
    Codec ID                    : avc1
    Codec ID/Info               : Advanced Video Coding
    Duration                    : 29 min 22 s
    Bit rate mode               : Constant
    Bit rate                    : 15.1 Mb/s
    Width                       : 3 840 pixels
    Height                      : 2 160 pixels
    Display aspect ratio        : 16:9
    Frame rate mode             : Constant
    Frame rate                  : 25.000 FPS
    Standard                    : PAL
    Color space                 : YUV
    Chroma subsampling          : 4:2:0
    Bit depth                   : 8 bits
    Scan type                   : Progressive
    Bits/(Pixel*Frame)          : 0.073
    Stream size                 : 3.10 GiB (99%)
    Language                    : English
    Encoded date                : UTC 1970-01-01 00:00:00
    Tagged date                 : UTC 1970-01-01 00:00:00
    Color range                 : Limited
    Color primaries             : BT.709
    Transfer characteristics    : BT.709
    Matrix coefficients         : BT.709
    
    Audio
    ID                          : 2
    Format                      : AAC
    Format/Info                 : Advanced Audio Codec
    Format profile              : LC
    Codec ID                    : 40
    Duration                    : 29 min 22 s
    Bit rate mode               : Variable
    Bit rate                    : 126 kb/s
    Channel(s)                  : 2 channels
    Channel positions           : Front: L R
    Sampling rate               : 44.1 kHz
    Frame rate                  : 43.066 FPS (1024 spf)
    Compression mode            : Lossy
    Stream size                 : 26.4 MiB (1%)
    Language                    : English
    Encoded date                : UTC 1970-01-01 00:00:00
    Tagged date                 : UTC 1970-01-01 00:00:00
    
    Pass giải nén (Extract rar): LRTJNI
    Direct link:
    Mã:
    https://www.fshare.vn/file/4GLEW3EJ75TE
     
  4. noelhao

    noelhao Ultra HD4K Thành viên BQT

    Bài viết:
    6,241
    Đã được thích:
    1,079
    Private Specials 164 - Hardcore Personal Trainer 2017 4K

    [​IMG]

    Screenshot:


    [​IMG]

    Mediainfo:
    Mã:
    Private Specials 164 - Hardcore Personal Trainer 2017 4K\Scene 1. Lovenia Lux.mp4
    Format                      : MPEG-4
    Format profile              : Base Media / Version 2
    Codec ID                    : mp42 (mp42/isom)
    File size                   : 4.30 GiB
    Duration                    : 40 min 28 s
    Overall bit rate mode       : Variable
    Overall bit rate            : 15.2 Mb/s
    Encoded date                : UTC 1970-01-01 00:00:00
    Tagged date                 : UTC 1970-01-01 00:00:00
    Writing application         : Lavf52.34.0
    
    Video
    ID                          : 1
    Format                      : AVC
    Format/Info                 : Advanced Video Codec
    Format profile              : [email protected]
    Format settings, CABAC      : Yes
    Format settings, ReFrames   : 3 frames
    Codec ID                    : avc1
    Codec ID/Info               : Advanced Video Coding
    Duration                    : 40 min 28 s
    Source duration             : 40 min 27 s
    Bit rate mode               : Constant
    Bit rate                    : 15.1 Mb/s
    Width                       : 3 840 pixels
    Height                      : 2 160 pixels
    Display aspect ratio        : 16:9
    Frame rate mode             : Constant
    Frame rate                  : 25.000 FPS
    Standard                    : PAL
    Color space                 : YUV
    Chroma subsampling          : 4:2:0
    Bit depth                   : 8 bits
    Scan type                   : Progressive
    Bits/(Pixel*Frame)          : 0.073
    Stream size                 : 4.10 GiB (95%)
    Source stream size          : 4.27 GiB (99%)
    Language                    : English
    Encoded date                : UTC 1970-01-01 00:00:00
    Tagged date                 : UTC 1970-01-01 00:00:00
    Color range                 : Limited
    Color primaries             : BT.709
    Transfer characteristics    : BT.709
    Matrix coefficients         : BT.709
    mdhd_Duration               : 2428079
    
    Audio
    ID                          : 2
    Format                      : AAC
    Format/Info                 : Advanced Audio Codec
    Format profile              : LC
    Codec ID                    : 40
    Duration                    : 40 min 28 s
    Bit rate mode               : Variable
    Bit rate                    : 126 kb/s
    Channel(s)                  : 2 channels
    Channel positions           : Front: L R
    Sampling rate               : 44.1 kHz
    Frame rate                  : 43.066 FPS (1024 spf)
    Compression mode            : Lossy
    Stream size                 : 36.4 MiB (1%)
    Language                    : English
    Encoded date                : UTC 1970-01-01 00:00:00
    Tagged date                 : UTC 1970-01-01 00:00:00
    
    Pass giải nén (Extract rar): OPRWKQ
    Direct link:
    Mã:
    https://www.fshare.vn/file/SWWKVDXDQDB8
     
  5. noelhao

    noelhao Ultra HD4K Thành viên BQT

    Bài viết:
    6,241
    Đã được thích:
    1,079
    Private Specials 165 - Big Boobs 2017 4K

    [​IMG]

    Screenshot:


    [​IMG]

    Mediainfo:
    Mã:
    Private Specials 165 - Big Boobs 2017 4K\Scene 1. Rachele Richey.mp4
    Format                      : MPEG-4
    Format profile              : Base Media / Version 2
    Codec ID                    : mp42 (mp42/isom)
    File size                   : 3.67 GiB
    Duration                    : 34 min 32 s
    Overall bit rate mode       : Variable
    Overall bit rate            : 15.2 Mb/s
    Encoded date                : UTC 1970-01-01 00:00:00
    Tagged date                 : UTC 1970-01-01 00:00:00
    Writing application         : Lavf52.34.0
    
    Video
    ID                          : 1
    Format                      : AVC
    Format/Info                 : Advanced Video Codec
    Format profile              : [email protected]
    Format settings, CABAC      : Yes
    Format settings, ReFrames   : 3 frames
    Codec ID                    : avc1
    Codec ID/Info               : Advanced Video Coding
    Duration                    : 34 min 32 s
    Bit rate mode               : Constant
    Bit rate                    : 15.1 Mb/s
    Width                       : 3 840 pixels
    Height                      : 2 160 pixels
    Display aspect ratio        : 16:9
    Frame rate mode             : Constant
    Frame rate                  : 25.000 FPS
    Standard                    : PAL
    Color space                 : YUV
    Chroma subsampling          : 4:2:0
    Bit depth                   : 8 bits
    Scan type                   : Progressive
    Bits/(Pixel*Frame)          : 0.073
    Stream size                 : 3.64 GiB (99%)
    Language                    : English
    Encoded date                : UTC 1970-01-01 00:00:00
    Tagged date                 : UTC 1970-01-01 00:00:00
    Color range                 : Limited
    Color primaries             : BT.709
    Transfer characteristics    : BT.709
    Matrix coefficients         : BT.709
    
    Audio
    ID                          : 2
    Format                      : AAC
    Format/Info                 : Advanced Audio Codec
    Format profile              : LC
    Codec ID                    : 40
    Duration                    : 34 min 32 s
    Bit rate mode               : Variable
    Bit rate                    : 126 kb/s
    Channel(s)                  : 2 channels
    Channel positions           : Front: L R
    Sampling rate               : 44.1 kHz
    Frame rate                  : 43.066 FPS (1024 spf)
    Compression mode            : Lossy
    Stream size                 : 31.0 MiB (1%)
    Language                    : English
    Encoded date                : UTC 1970-01-01 00:00:00
    Tagged date                 : UTC 1970-01-01 00:00:00
    Pass giải nén (Extract rar): XUSC2F
    Direct link:
    Mã:
    https://www.fshare.vn/file/L6UE6FDB7QSI
     
  6. noelhao

    noelhao Ultra HD4K Thành viên BQT

    Bài viết:
    6,241
    Đã được thích:
    1,079
    Private Specials 170 - Millennials Fuck Better 2017 4K

    [​IMG]

    Screenshot:


    [​IMG]

    Mediainfo:
    Mã:
    Private Specials 170 - Millennials Fuck Better 2017 4K\Scene 1. Kristall Rush.mp4
    Format                      : MPEG-4
    Format profile              : Base Media / Version 2
    Codec ID                    : mp42 (mp42/isom)
    File size                   : 2.54 GiB
    Duration                    : 23 min 54 s
    Overall bit rate mode       : Variable
    Overall bit rate            : 15.2 Mb/s
    Encoded date                : UTC 1970-01-01 00:00:00
    Tagged date                 : UTC 1970-01-01 00:00:00
    Writing application         : Lavf52.34.0
    
    Video
    ID                          : 1
    Format                      : AVC
    Format/Info                 : Advanced Video Codec
    Format profile              : [email protected]
    Format settings, CABAC      : Yes
    Format settings, ReFrames   : 3 frames
    Codec ID                    : avc1
    Codec ID/Info               : Advanced Video Coding
    Duration                    : 23 min 54 s
    Bit rate mode               : Constant
    Bit rate                    : 15.1 Mb/s
    Width                       : 3 840 pixels
    Height                      : 2 160 pixels
    Display aspect ratio        : 16:9
    Frame rate mode             : Constant
    Frame rate                  : 25.000 FPS
    Standard                    : PAL
    Color space                 : YUV
    Chroma subsampling          : 4:2:0
    Bit depth                   : 8 bits
    Scan type                   : Progressive
    Bits/(Pixel*Frame)          : 0.073
    Stream size                 : 2.52 GiB (99%)
    Language                    : English
    Encoded date                : UTC 1970-01-01 00:00:00
    Tagged date                 : UTC 1970-01-01 00:00:00
    Color range                 : Limited
    Color primaries             : BT.709
    Transfer characteristics    : BT.709
    Matrix coefficients         : BT.709
    
    Audio
    ID                          : 2
    Format                      : AAC
    Format/Info                 : Advanced Audio Codec
    Format profile              : LC
    Codec ID                    : 40
    Duration                    : 23 min 54 s
    Bit rate mode               : Variable
    Bit rate                    : 126 kb/s
    Channel(s)                  : 2 channels
    Channel positions           : Front: L R
    Sampling rate               : 44.1 kHz
    Frame rate                  : 43.066 FPS (1024 spf)
    Compression mode            : Lossy
    Stream size                 : 21.5 MiB (1%)
    Language                    : English
    Encoded date                : UTC 1970-01-01 00:00:00
    Tagged date                 : UTC 1970-01-01 00:00:00
    Pass giải nén (Extract rar): QF0FCQ
    Direct link:
    Mã:
    https://www.fshare.vn/file/RGOSPUWNA6QW
     
  7. noelhao

    noelhao Ultra HD4K Thành viên BQT

    Bài viết:
    6,241
    Đã được thích:
    1,079
    Tạm trước hai phim nhé, còn một số phim của em này nhưng sẽ upload theo thứ tự đã yêu cầu nha:


     
  8. Thất Tình

    Thất Tình Còn trinh Verified

    Bài viết:
    86
    Đã được thích:
    8
    Bác Noelhao cho em phim Encore Vol.33 và các phim của em Satomi Suzuki nha bác. Hóng từ đầu tháng 5 tớ giờ, hihi :D
     
  9. noelhao

    noelhao Ultra HD4K Thành viên BQT

    Bài viết:
    6,241
    Đã được thích:
    1,079
    Mình vừa khởi động lại, cũng từ từ mới tăng tốc được :p.
     
  10. Duy Nguyen 987

    Duy Nguyen 987 Còn Bú Sữa Mẹ Verified

    Bài viết:
    25
    Đã được thích:
    8
    Bạn còn phim Henessy này ko bạn ?
    LegalPorno - Henessy (3 on 1) (2014) HD 1080p 2.398 GB
    (Henessy SZ342.mp4 size 2.398 GB)
     
  11. noelhao

    noelhao Ultra HD4K Thành viên BQT

    Bài viết:
    6,241
    Đã được thích:
    1,079
    Mình không có bản này nha bạn.
     
  12. Duy Nguyen 987

    Duy Nguyen 987 Còn Bú Sữa Mẹ Verified

    Bài viết:
    25
    Đã được thích:
    8
    vậy Bạn có phim của Anny Aurora ko bạn.phim
    -WoodmanCastingX Anny Aurora Updated Casting X 149 (11.10.15) 1080p 7.88 GB
    nếu có thì lúc nào rỗi upload giúp mình bạn nhé.Cám ơn bạn!
     
  13. noelhao

    noelhao Ultra HD4K Thành viên BQT

    Bài viết:
    6,241
    Đã được thích:
    1,079
    OK, sẽ upload phim này.
     
  14. thiendia126

    thiendia126 Xem Sex Lần Đầu Verified

    Bài viết:
    32
    Đã được thích:
    7
    Sắp đến phim của em chưa bác:D
     
  15. noelhao

    noelhao Ultra HD4K Thành viên BQT

    Bài viết:
    6,241
    Đã được thích:
    1,079
    SMBD-167 S Model 167 2.5 Seconds Fuck : Nozomi Momoki

    [​IMG]

    Screenshot:


    [​IMG]

    BDINFO:

    Mã:
    Disc Title: SMBD_167
    Disc Size: 23,242,306,266 bytes
    Protection: AACS
    BD-Java: No
    Playlist: 00001.MPLS
    Size: 22,007,764,992 bytes
    Length: 1:59:42.108
    Total Bitrate: 24.51 Mbps
    Video: MPEG-4 AVC Video / 22981 kbps / 1080i / 29.970 fps / 16:9 / High Profile 4.1
    Audio: Japanese / Dolby Digital Audio / 2.0 / 48 kHz / 384 kbps
    
    Pass giải nén (Extract rar): NUCNX2
    Direct link:
    Mã:
    https://www.fshare.vn/file/1W5PUWQOXFZE
     
    namnin thích bài này.
  16. noelhao

    noelhao Ultra HD4K Thành viên BQT

    Bài viết:
    6,241
    Đã được thích:
    1,079
    SMBD-168 S Model 168 She Serves Me Only : Ema Kato

    [​IMG]

    Screenshot:


    [​IMG]

    BDINFO:

    Mã:
    Disc Title: SMBD_168
    Disc Size: 23,155,508,498 bytes
    Protection: AACS
    BD-Java: No
    Playlist: 00001.MPLS
    Size: 22,060,363,776 bytes
    Length: 1:59:53.119
    Total Bitrate: 24.53 Mbps
    Video: MPEG-4 AVC Video / 23002 kbps / 1080i / 29.970 fps / 16:9 / High Profile 4.1
    Audio: Japanese / Dolby Digital Audio / 2.0 / 48 kHz / 384 kbps
    
    Pass giải nén (Extract rar): N7HMDH
    Direct link:
    Mã:
    https://www.fshare.vn/file/5GOQDDEP2VYV
     
    namnin thích bài này.
  17. noelhao

    noelhao Ultra HD4K Thành viên BQT

    Bài viết:
    6,241
    Đã được thích:
    1,079
    Adam & Eve - Zero Tolerance - Roller Dollz 2008 - 2Disc Set - Bluray 1080p VC-1 DD5.1

    [​IMG]

    Screenshot:


    [​IMG] [​IMG]

    BDINFO:

    Mã:
    Disc Title: Roller Dollz A
    Disc Size: 22,584,223,808 bytes
    Protection: AACS
    BD-Java: No
    Playlist: 00001.MPLS
    Size: 22,359,693,312 bytes
    Length: 2:56:28.411
    Total Bitrate: 16.89 Mbps
    Video: VC-1 Video / 15477 kbps / 1080p / 23.976 fps / 16:9 / Advanced Profile 3
    Audio: English / Dolby Digital Audio / 5.1 / 48 kHz / 384 kbps / DN -4dB
    Audio: Spanish / Dolby Digital Audio / 2.0 / 48 kHz / 192 kbps / DN -4dB
    
    Mã:
    Disc Title: Roller Dollz B
    Disc Size: 24,220,791,772 bytes
    Protection: AACS
    BD-Java: No
    Playlist: 00001.MPLS
    Size: 8,772,581,952 bytes
    Length: 1:11:13.435
    Total Bitrate: 16.42 Mbps
    Video: VC-1 Video / 15026 kbps / 1080p / 23.976 fps / 16:9 / Advanced Profile 3
    Audio: English / Dolby Digital Audio / 5.1 / 48 kHz / 384 kbps / DN -4dB
    Audio: Spanish / Dolby Digital Audio / 2.0 / 48 kHz / 192 kbps / DN -4dB
    ==========================================================
    
    Disc Title: Roller Dollz B
    Disc Size: 24,220,791,772 bytes
    Protection: AACS
    BD-Java: No
    Playlist: 00011.MPLS
    Size: 4,028,043,264 bytes
    Length: 0:33:54.599
    Total Bitrate: 15.84 Mbps
    Video: VC-1 Video / 14874 kbps / 1080i / 29.970 fps / 16:9 / Advanced Profile 3
    Audio: English / Dolby Digital Audio / 2.0 / 48 kHz / 192 kbps / DN -4dB
    Pass giải nén (Extract rar): Q6ETOS
    Direct link:
    Mã:
    https://www.fshare.vn/file/2MM39PLKRWXP
    https://www.fshare.vn/file/8T62LIIPQC7P
     
    namnin and Lapad like this.
  18. noelhao

    noelhao Ultra HD4K Thành viên BQT

    Bài viết:
    6,241
    Đã được thích:
    1,079
    NaughtyAmerica - Sunny Lane, Johnny Castle - My Friend's Hot Girl 28122015 4K

    [​IMG]

    Screenshot:


    [​IMG]

    Mediainfo:
    Mã:
    NaughtyAmerica - Sunny Lane, Johnny Castle - My Friend's Hot Girl 28122015 4K.mp4
    Format                      : MPEG-4
    Format profile              : Base Media / Version 2
    Codec ID                    : mp42 (mp42/mp41)
    File size                   : 4.05 GiB
    Duration                    : 28 min 33 s
    Overall bit rate mode       : Variable
    Overall bit rate            : 20.3 Mb/s
    Encoded date                : UTC 2015-12-23 05:03:33
    Tagged date                 : UTC 2015-12-23 05:05:42
    ©TIM                        : 00:00:00:00
    ©TSC                        : 24000
    ©TSZ                        : 1001
    
    Video
    ID                          : 1
    Format                      : AVC
    Format/Info                 : Advanced Video Codec
    Format profile              : [email protected]
    Format settings, CABAC      : Yes
    Format settings, ReFrames   : 3 frames
    Codec ID                    : avc1
    Codec ID/Info               : Advanced Video Coding
    Duration                    : 28 min 33 s
    Bit rate mode               : Variable
    Bit rate                    : 20.1 Mb/s
    Maximum bit rate            : 100.0 Mb/s
    Width                       : 4 096 pixels
    Height                      : 2 160 pixels
    Display aspect ratio        : 1.896
    Frame rate mode             : Constant
    Frame rate                  : 23.976 (24000/1001) FPS
    Standard                    : NTSC
    Color space                 : YUV
    Chroma subsampling          : 4:2:0
    Bit depth                   : 8 bits
    Scan type                   : Progressive
    Bits/(Pixel*Frame)          : 0.095
    Stream size                 : 4.01 GiB (99%)
    Language                    : English
    Encoded date                : UTC 2015-12-23 05:03:33
    Tagged date                 : UTC 2015-12-23 05:03:33
    Color range                 : Limited
    Color primaries             : BT.709
    Transfer characteristics    : BT.709
    Matrix coefficients         : BT.709
    
    Audio
    ID                          : 2
    Format                      : AAC
    Format/Info                 : Advanced Audio Codec
    Format profile              : LC
    Codec ID                    : 40
    Duration                    : 28 min 33 s
    Source duration             : 28 min 33 s
    Bit rate mode               : Variable
    Bit rate                    : 192 kb/s
    Maximum bit rate            : 291 kb/s
    Channel(s)                  : 2 channels
    Channel positions           : Front: L R
    Sampling rate               : 48.0 kHz
    Frame rate                  : 46.875 FPS (1024 spf)
    Compression mode            : Lossy
    Stream size                 : 38.7 MiB (1%)
    Source stream size          : 38.7 MiB (1%)
    Language                    : English
    Encoded date                : UTC 2015-12-23 05:03:33
    Tagged date                 : UTC 2015-12-23 05:03:33
    
    Pass giải nén (Extract rar): NCLR53
    Direct link:
    Mã:
    https://www.fshare.vn/file/S9JOLLYQKDVZ
     
  19. noelhao

    noelhao Ultra HD4K Thành viên BQT

    Bài viết:
    6,241
    Đã được thích:
    1,079
    Zero Tolerance - Fishnets 9 2008 Bluray 1080i VC-1 DD2.0

    [​IMG]


    Screenshot:


    [​IMG]

    BDINFO:

    Mã:
    Disc Title: Fishnets 9
    Disc Size: 21,018,919,188 bytes
    Protection: AACS
    BD-Java: No
    Playlist: 00001.MPLS
    Size: 17,488,601,088 bytes
    Length: 2:17:36.581
    Total Bitrate: 16.95 Mbps
    Video: VC-1 Video / 15933 kbps / 1080i / 29.970 fps / 16:9 / Advanced Profile 3
    Audio: English / Dolby Digital Audio / 2.0 / 48 kHz / 192 kbps / DN -4dB
    
    Pass giải nén (Extract rar): JWN3TF
    Direct link:
    Mã:
    https://www.fshare.vn/file/PMPEKF55ZDKE
     
    Lapad thích bài này.
  20. noelhao

    noelhao Ultra HD4K Thành viên BQT

    Bài viết:
    6,241
    Đã được thích:
    1,079
    Hình như tới rồi thì phải :p
    P/s: Thật xấu hổ khi AE xin phim mà 1, 2 tháng sau mới có. Nhưng bận quá, AE thì yêu cầu cũng nhiều nên không cách chi lên hàng nhanh được.:(
     

Chia sẻ trang này